请选择 进入手机版 | 继续访问电脑版

YMLY-影迷乐园-特效字幕 蓝光原盘 1080P 高清动漫电影电视剧

 找回密码
 立即注册
搜索
查看: 69|回复: 6

[法国] [115+百度][2019][1080P][阿涅斯论瓦尔达][简.繁.英字幕][MKV][7.99GB][Varda.by.Agnès.2019.Bluray.1080p.x265.10bit.AC3.MNHD-FRDS]

[复制链接]
  • TA的每日心情
    奋斗
    2020-2-21 00:36
  • 签到天数: 656 天

    [LV.9]以坛为家II

    8183

    主题

    1万

    帖子

    6万

    积分

    超级版主

    与齐同行,是最初的梦想,也是一辈子的执着~

    Rank: 16Rank: 16Rank: 16Rank: 16

    积分
    64078

    内测勋章最佳新人十二生肖之猴VIP包月勋章影迷男神小土豪勋章土豪勋章富甲一方精华勋章金话筒主题达人灌水之王

    发表于 2020-11-21 17:18:40 | 显示全部楼层 |阅读模式
    下载说明:

    百度网盘分享极其不稳定,如有链接失效,请第一时间站内短消息通知我,上线后会第一时间补发!请大家多多谅解!电驴链接只能115会员离线下载,其它工具都下载不了!


    ----转载自FRDS,感谢压制和原发布人员,特此鸣谢!----


    制作说明:

    瓦尔达CC合集#1
    原盘来自The.Complete.Films.of.Agnes.Varda.Criterion.Collection.1080p.Blu-ray.AVC.DTS-HD.MA
    字幕提取自HDHOME DIY原盘
    感谢!




    ◎译  名 阿涅斯论瓦尔达 / Varda by Agnès / 听瓦尔达说 / 艾丽丝说华妲(港)
    ◎片  名 Varda par Agnès
    ◎年  代 2019
    ◎产  地 法国
    ◎类  别 纪录片
    ◎语  言 法语 / 英语
    ◎上映日期 2019-02-13(柏林电影节) / 2019-03-18(法国)
    ◎IMDb评分  7.9/10 from 1609 users
    ◎IMDb链接  https://www.imdb.com/title/tt9530198
    ◎豆瓣评分 9.2/10 from 10616 users
    ◎豆瓣链接 https://movie.douban.com/subject/30423539/
    ◎片  长 115分钟
    ◎导  演 阿涅斯·瓦尔达 Agnès Varda
    ◎编  剧 阿涅斯·瓦尔达 Agnès Varda
    ◎主  演 阿涅斯·瓦尔达 Agnès Varda


    ◎标  签 纪录片 | 阿涅斯·瓦尔达 | 法国 | 传记 | 2019 | 自传 | 柏林电影节 | SIFF

    ◎简  介  

      当不少人以为《脸庞,村庄》(2018)是华妲退休前最后杰作,她连奥斯卡终身成就奖亦袋袋平安,偏偏俏皮一笑,又交出这部活泼生猛的纪录片。由巴黎、洛杉矶到北京,马不停蹄开班分享创作理念,这位九十岁祖师奶奶不言倦,反正花样年华已被唤作「法国新浪潮祖母」,索性成为影坛万年青。 本尊娓娓道来启发《短角情事》(38 届)的好奇心,《拾穗者与我》(25 届)的细腻观察;至今不辍光影实验,不吝将艺术触觉传承。是为一生回顾展?言之尚早!

    ◎获奖情况  

      第40届伦敦影评人协会奖(2020)
      年度纪录片(提名)

      第6届豆瓣电影年度榜单(2019)
      评分最高的纪录片(提名)
    1. General
    2. Unique ID                                : 310662308383645976598968383973511208274 (0xE9B7625CF401DD21587E23085DE91D52)
    3. Complete name                            : 阿涅斯论瓦尔达.Varda.by.Agnès.2019.Bluray.1080p.x265.10bit.FLAC.MNHD-FRDS/Varda.by.Agnès.2019.Bluray.1080p.x265.10bit.FLAC.MNHD-FRDS.mkv
    4. Format                                   : Matroska
    5. Format version                           : Version 4
    6. File size                                : 7.99 GiB
    7. Duration                                 : 2 h 0 min
    8. Overall bit rate                         : 9 520 kb/s
    9. Encoded date                             : UTC 2020-10-30 07:55:09
    10. Writing application                      : mkvmerge v50.0.0 ('Awakenings') 64-bit
    11. Writing library                          : libebml v1.4.0 + libmatroska v1.6.2
    12. Cover                                    : Yes
    13. Attachments                              : cover

    14. Video
    15. ID                                       : 1
    16. Format                                   : HEVC
    17. Format/Info                              : High Efficiency Video Coding
    18. Format profile                           : Main 10@L5.1@High
    19. Codec ID                                 : V_MPEGH/ISO/HEVC
    20. Duration                                 : 2 h 0 min
    21. Bit rate                                 : 8 822 kb/s
    22. Width                                    : 1 920 pixels
    23. Height                                   : 1 080 pixels
    24. Display aspect ratio                     : 16:9
    25. Frame rate mode                          : Constant
    26. Frame rate                               : 23.976 (24000/1001) FPS
    27. Color space                              : YUV
    28. Chroma subsampling                       : 4:2:0
    29. Bit depth                                : 10 bits
    30. Bits/(Pixel*Frame)                       : 0.177
    31. Stream size                              : 7.40 GiB (93%)
    32. Writing library                          : x265 0.0:[Linux][GCC 7.5.0][64 bit] 10bit
    33. Encoding settings                        : cpuid=1111039 / frame-threads=5 / numa-pools=* / wpp / pmode / no-pme / no-psnr / no-ssim / log-level=2 / input-csp=1 / input-res=1920x1080 / interlace=0 / total-frames=0 / level-idc=0 / high-tier=1 / uhd-bd=0 / ref=6 / no-allow-non-conformance / no-repeat-headers / annexb / no-aud / no-hrd / info / hash=0 / no-temporal-layers / no-open-gop / min-keyint=23 / keyint=250 / gop-lookahead=0 / bframes=16 / b-adapt=2 / b-pyramid / bframe-bias=0 / rc-lookahead=250 / lookahead-slices=0 / scenecut=40 / hist-scenecut=0 / radl=0 / no-splice / no-intra-refresh / ctu=32 / min-cu-size=8 / no-rect / no-amp / max-tu-size=32 / tu-inter-depth=4 / tu-intra-depth=4 / limit-tu=0 / rdoq-level=2 / dynamic-rd=0.00 / no-ssim-rd / signhide / no-tskip / nr-intra=0 / nr-inter=0 / no-constrained-intra / strong-intra-smoothing / max-merge=5 / limit-refs=0 / no-limit-modes / me=3 / subme=7 / merange=57 / temporal-mvp / no-frame-dup / no-hme / weightp / weightb / no-analyze-src-pics / deblock=-3:-3 / no-sao / no-sao-non-deblock / rd=4 / selective-sao=0 / no-early-skip / no-rskip / no-fast-intra / no-tskip-fast / no-cu-lossless / b-intra / no-splitrd-skip / rdpenalty=0 / psy-rd=1.00 / psy-rdoq=1.00 / no-rd-refine / no-lossless / cbqpoffs=0 / crqpoffs=0 / rc=crf / crf=22.0 / qcomp=0.60 / qpstep=4 / stats-write=0 / stats-read=0 / vbv-maxrate=160000 / vbv-bufsize=160000 / vbv-init=0.9 / crf-max=0.0 / crf-min=0.0 / ipratio=1.30 / pbratio=1.20 / aq-mode=2 / aq-strength=1.00 / no-cutree / zone-count=0 / no-strict-cbr / qg-size=32 / no-rc-grain / qpmax=69 / qpmin=0 / no-const-vbv / sar=0 / overscan=0 / videoformat=5 / range=0 / colorprim=1 / transfer=1 / colormatrix=1 / chromaloc=0 / display-window=0 / cll=0,0 / min-luma=0 / max-luma=1023 / log2-max-poc-lsb=8 / vui-timing-info / vui-hrd-info / slices=1 / no-opt-qp-pps / no-opt-ref-list-length-pps / no-multi-pass-opt-rps / scenecut-bias=0.05 / hist-threshold=0.01 / no-opt-cu-delta-qp / no-aq-motion / no-hdr10 / no-hdr10-opt / no-dhdr10-opt / no-idr-recovery-sei / analysis-reuse-level=0 / analysis-save-reuse-level=0 / analysis-load-reuse-level=0 / scale-factor=0 / refine-intra=0 / refine-inter=0 / refine-mv=1 / refine-ctu-distortion=0 / no-limit-sao / ctu-info=0 / no-lowpass-dct / refine-analysis-type=0 / copy-pic=1 / max-ausize-factor=1.0 / no-dynamic-refine / no-single-sei / no-hevc-aq / no-svt / no-field / qp-adaptation-range=1.00 / no-scenecut-aware-qpconformance-window-offsets / right=0 / bottom=0 / decoder-max-rate=0
    34. Default                                  : Yes
    35. Forced                                   : No
    36. Color range                              : Limited
    37. Color primaries                          : BT.709
    38. Transfer characteristics                 : BT.709
    39. Matrix coefficients                      : BT.709

    40. Audio
    41. ID                                       : 5
    42. Format                                   : AC-3
    43. Format/Info                              : Audio Coding 3
    44. Commercial name                          : Dolby Digital
    45. Codec ID                                 : A_AC3
    46. Duration                                 : 2 h 0 min
    47. Bit rate mode                            : Constant
    48. Bit rate                                 : 640 kb/s
    49. Channel(s)                               : 6 channels
    50. Channel layout                           : L R C LFE Ls Rs
    51. Sampling rate                            : 48.0 kHz
    52. Frame rate                               : 31.250 FPS (1536 SPF)
    53. Compression mode                         : Lossy
    54. Stream size                              : 550 MiB (7%)
    55. Language                                 : French
    56. Service kind                             : Complete Main
    57. Default                                  : Yes
    58. Forced                                   : No

    59. Text #1
    60. ID                                       : 2
    61. Format                                   : PGS
    62. Muxing mode                              : zlib
    63. Codec ID                                 : S_HDMV/PGS
    64. Codec ID/Info                            : Picture based subtitle format used on BDs/HD-DVDs
    65. Duration                                 : 1 h 58 min
    66. Bit rate                                 : 40.7 kb/s
    67. Count of elements                        : 3060
    68. Stream size                              : 34.4 MiB (0%)
    69. Title                                    : Simplified Chinese
    70. Language                                 : Chinese
    71. Default                                  : Yes
    72. Forced                                   : No

    73. Text #2
    74. ID                                       : 3
    75. Format                                   : PGS
    76. Muxing mode                              : zlib
    77. Codec ID                                 : S_HDMV/PGS
    78. Codec ID/Info                            : Picture based subtitle format used on BDs/HD-DVDs
    79. Duration                                 : 1 h 58 min
    80. Bit rate                                 : 41.6 kb/s
    81. Count of elements                        : 3060
    82. Stream size                              : 35.1 MiB (0%)
    83. Title                                    : Traditional Chinese
    84. Default                                  : No
    85. Forced                                   : No

    86. Text #3
    87. ID                                       : 4
    88. Format                                   : PGS
    89. Muxing mode                              : zlib
    90. Codec ID                                 : S_HDMV/PGS
    91. Codec ID/Info                            : Picture based subtitle format used on BDs/HD-DVDs
    92. Duration                                 : 1 h 58 min
    93. Bit rate                                 : 62.0 kb/s
    94. Count of elements                        : 3328
    95. Stream size                              : 52.3 MiB (1%)
    96. Language                                 : English
    97. Default                                  : No
    98. Forced                                   : No

    99. Menu
    100. 00:00:00.000                             : 00:00:00.000
    101. 00:05:36.836                             : 00:05:36.836
    102. 00:14:35.082                             : 00:14:35.082
    103. 00:18:58.095                             : 00:18:58.095
    104. 00:29:09.330                             : 00:29:09.330
    105. 00:35:13.569                             : 00:35:13.569
    106. 00:49:30.384                             : 00:49:30.384
    107. 00:55:32.203                             : 00:55:32.203
    108. 01:04:07.093                             : 01:04:07.093
    109. 01:08:45.621                             : 01:08:45.621
    110. 01:17:02.618                             : 01:17:02.618
    111. 01:30:25.211                             : 01:30:25.211
    112. 01:38:01.250                             : 01:38:01.250
    113. 01:51:16.961                             : 01:51:16.961
    114. 02:00:06.949                             : 02:00:06.949
    复制代码


    截图仅为给大家知道字幕的样式,并非电影的画质。





    购买主题 已有 1 人购买  本主题需向作者支付 10 大洋 才能浏览
    郑重声明:
    本人提供的所有影视作品均是在网上搜集,任何涉及商业盈利目的均不得使用,否则产生的一切后果将由您自己承担!
    本人不对本人所发布的任何内容负任何法律责任!该下载内容仅做宽带测试使用,请在下载后24小时内删除。请购买正版!
    本人列出的文件没有保存在本站的服务器上,本人仅负责连接,本人对被传播文件的内容一无所知。
    如侵犯视频原作者或发行商版权,请联系本人删除!
    回复

    使用道具 举报

  • TA的每日心情
    慵懒
    昨天 01:36
  • 签到天数: 85 天

    [LV.6]常住居民II

    1

    主题

    1211

    帖子

    92

    积分

    中级影迷

    Rank: 3Rank: 3

    积分
    92
    发表于 2020-11-21 21:03:04 | 显示全部楼层

    谢谢分享好资源
    回复

    使用道具 举报

  • TA的每日心情
    开心
    半小时前
  • 签到天数: 146 天

    [LV.7]常住居民III

    1

    主题

    1528

    帖子

    299

    积分

    超级影迷

    Rank: 6Rank: 6

    积分
    299
    发表于 2020-11-21 22:28:52 | 显示全部楼层
    谢谢楼主分享
    回复

    使用道具 举报

  • TA的每日心情
    开心
    昨天 14:02
  • 签到天数: 120 天

    [LV.7]常住居民III

    1

    主题

    1343

    帖子

    240

    积分

    高级影迷

    Rank: 4

    积分
    240
    发表于 2020-11-22 06:41:19 | 显示全部楼层
    感谢分享!
    回复

    使用道具 举报

  • TA的每日心情
    开心
    1 小时前
  • 签到天数: 101 天

    [LV.6]常住居民II

    3

    主题

    975

    帖子

    288

    积分

    超级影迷

    Rank: 6Rank: 6

    积分
    288

    小土豪勋章

    发表于 2020-11-22 07:54:26 | 显示全部楼层
    感谢分享!
    回复

    使用道具 举报

  • TA的每日心情
    开心
    昨天 21:13
  • 签到天数: 144 天

    [LV.7]常住居民III

    18

    主题

    1550

    帖子

    174

    积分

    高级影迷

    Rank: 4

    积分
    174
    发表于 2020-11-22 11:08:43 | 显示全部楼层
    感谢分享,支持一下
    回复

    使用道具 举报

  • TA的每日心情

    昨天 00:07
  • 签到天数: 79 天

    [LV.6]常住居民II

    3

    主题

    759

    帖子

    42

    积分

    初级影迷

    Rank: 2

    积分
    42
    发表于 3 天前 | 显示全部楼层
    名人自传啊啊
    回复

    使用道具 举报

    您需要登录后才可以回帖 登录 | 立即注册

    本版积分规则

    QQ|Archiver|手机版|小黑屋|影迷乐园

    GMT+8, 2020-12-1 03:25 , Processed in 0.065606 second(s), 27 queries .

    Powered by Discuz! X3.4

    Copyright © 2001-2020, Tencent Cloud.

    快速回复 返回顶部 返回列表