请选择 进入手机版 | 继续访问电脑版

YMLY-影迷乐园-特效字幕 蓝光原盘 1080P 高清动漫电影电视剧

 找回密码
 立即注册
搜索
查看: 145|回复: 19

[大陆] [115+百度][2003][4K][少年王卫斯理.无台标无水印][国语中字][吴奇隆.于波][40集全][MP4][67.0GB][Wesley.the.Young.Adventurer.2003.2160p.WEB-DL.H265.AAC-YMLY]

[复制链接]
  • TA的每日心情
    奋斗
    2020-2-21 00:36
  • 签到天数: 656 天

    [LV.9]以坛为家II

    8184

    主题

    1万

    帖子

    6万

    积分

    超级版主

    与齐同行,是最初的梦想,也是一辈子的执着~

    Rank: 16Rank: 16Rank: 16Rank: 16

    积分
    64081

    内测勋章最佳新人十二生肖之猴VIP包月勋章影迷男神小土豪勋章土豪勋章富甲一方精华勋章金话筒主题达人灌水之王

    发表于 2020-11-21 21:44:42 | 显示全部楼层 |阅读模式
    下载说明:

    百度云网盘分享极其不稳定,如有链接失效,请第一时间站内短消息通知我,上线后会第一时间补发!请大家多多谅解!电驴链接只能115会员离线下载,其它工具都下载不了!




    ◎译  名 Wesley the Young Adventurer / 冒险王卫斯理 / 冒険王 / 卫斯理之冒险王 / 少年卫斯理冒险王
    ◎片  名 少年王卫斯理
    ◎年  代 2003
    ◎产  地 中国大陆
    ◎类  别 剧情 / 奇幻
    ◎语  言 汉语普通话
    ◎上映日期 2003-05-01(中国大陆)
    ◎豆瓣评分 7.8/10 from 16378 users
    ◎豆瓣链接 https://movie.douban.com/subject/3391761/
    ◎集  数 40
    ◎片  长 47分钟
    ◎导  演 黎文彦 Wenyan Li
    ◎编  剧 陈文贵 Wengui Chen / 陈曼玲 Manling Chen
    ◎主  演 吴奇隆 Nicky Wu
           于波 Bo Yu
           杨光 Guang Yang
           杨俊毅 Junyi Yang
           卢星宇 Xingyu Lu
           韩雨芹 Yuqin Han
           刘勃君 Bojun Liu
           谷洋 Yang Gu
           杜泓君 Hongjun Du
           胡小庭 Xiaoting Hu
           郭军 Jun Guo
           袁满 Man Yuan
           刘颖 Ying Liu


    ◎标  签 电视剧 | 奇幻 | 吴奇隆 | 国产电视剧 | 卫斯理 | 看过的电视剧 | 科幻 | 中国

    ◎简  介  

      民国初年,天下局势动荡不安。少年卫斯理(吴奇隆 饰)是一个年轻而富有冒险精神的孤儿,在师父沐天恩(杜弘君 饰)的养育下长大成人,追随使命保护着清朝的皇家古墓。因为古墓密室发现的一座石棺而引起多方势力的明争暗抢,而棺中身穿金缕玉衣的妙龄少女更成了众人疑惑的不解之谜。卫斯理因这古棺的原因结识了白老大的女儿白素(阳光 饰),更是惊奇的发现,原来石棺内的女子是白素的母亲,石棺正是穿梭时空的飞行器。伴随着一次又一次惊奇冒险的生死考验下,卫斯理和白素渐生感情,而卫斯理更是在白素和白奇伟(于波 饰)兄妹的帮助下,发现了越来越多超自然的现象,而这些事情好像与卫斯理的身世之谜都有着紧密的联系。该片改编自倪匡的同名科幻系列小说。
    1. General
    2. Format                         : MPEG-4
    3. Format profile                 : Base Media
    4. Codec ID                       : isom (isom/iso2/mp41)
    5. File size                      : 1.74 GiB
    6. Duration                       : 47 min 14 s
    7. Overall bit rate               : 5 258 kb/s
    8. Recorded date                  : 2020-11-20T17:34:00.9446651+08:00
    9. Writing application            : Lavf58.32.104

    10. Video
    11. ID                             : 1
    12. Format                         : HEVC
    13. Format/Info                    : High Efficiency Video Coding
    14. Format profile                 : Main@L5@Main
    15. Codec ID                       : hev1
    16. Codec ID/Info                  : High Efficiency Video Coding
    17. Duration                       : 47 min 14 s
    18. Bit rate                       : 5 061 kb/s
    19. Width                          : 2 880 pixels
    20. Height                         : 2 160 pixels
    21. Display aspect ratio           : 4:3
    22. Frame rate mode                : Constant
    23. Frame rate                     : 25.000 FPS
    24. Color space                    : YUV
    25. Chroma subsampling             : 4:2:0
    26. Bit depth                      : 8 bits
    27. Bits/(Pixel*Frame)             : 0.033
    28. Stream size                    : 1.67 GiB (96%)
    29. Color range                    : Limited
    30. Color primaries                : BT.709
    31. Transfer characteristics       : BT.709
    32. Matrix coefficients            : BT.709
    33. Codec configuration box        : hvcC

    34. Audio
    35. ID                             : 2
    36. Format                         : AAC LC
    37. Format/Info                    : Advanced Audio Codec Low Complexity
    38. Codec ID                       : mp4a-40-2
    39. Duration                       : 47 min 14 s
    40. Bit rate mode                  : Constant
    41. Bit rate                       : 192 kb/s
    42. Channel(s)                     : 2 channels
    43. Channel layout                 : L R
    44. Sampling rate                  : 44.1 kHz
    45. Frame rate                     : 43.066 FPS (1024 SPF)
    46. Compression mode               : Lossy
    47. Stream size                    : 64.1 MiB (4%)
    48. Default                        : Yes
    49. Alternate group                : 1
    复制代码








    购买主题 已有 5 人购买  本主题需向作者支付 200 大洋 才能浏览
    郑重声明:
    本人提供的所有影视作品均是在网上搜集,任何涉及商业盈利目的均不得使用,否则产生的一切后果将由您自己承担!
    本人不对本人所发布的任何内容负任何法律责任!该下载内容仅做宽带测试使用,请在下载后24小时内删除。请购买正版!
    本人列出的文件没有保存在本站的服务器上,本人仅负责连接,本人对被传播文件的内容一无所知。
    如侵犯视频原作者或发行商版权,请联系本人删除!
    回复

    使用道具 举报

  • TA的每日心情
    开心
    2020-11-21 00:55
  • 签到天数: 8 天

    [LV.3]偶尔看看II

    0

    主题

    138

    帖子

    44

    积分

    初级影迷

    Rank: 2

    积分
    44
    发表于 2020-11-21 23:41:41 | 显示全部楼层
    感谢分享!
    回复

    使用道具 举报

  • TA的每日心情
    开心
    4 天前
  • 签到天数: 104 天

    [LV.6]常住居民II

    4

    主题

    1042

    帖子

    299

    积分

    超级影迷

    Rank: 6Rank: 6

    积分
    299
    发表于 2020-11-21 23:54:09 | 显示全部楼层
    感谢分享!
    回复

    使用道具 举报

  • TA的每日心情
    开心
    昨天 14:02
  • 签到天数: 120 天

    [LV.7]常住居民III

    1

    主题

    1343

    帖子

    240

    积分

    高级影迷

    Rank: 4

    积分
    240
    发表于 2020-11-22 06:39:39 | 显示全部楼层
    谢谢分享!
    回复

    使用道具 举报

  • TA的每日心情
    奋斗
    3 天前
  • 签到天数: 19 天

    [LV.4]偶尔看看III

    20

    主题

    306

    帖子

    107

    积分

    中级影迷

    Rank: 3Rank: 3

    积分
    107
    发表于 2020-11-22 06:45:50 | 显示全部楼层
    看看看看看看扩扩扩扩扩扩
    回复

    使用道具 举报

  • TA的每日心情
    开心
    2 小时前
  • 签到天数: 101 天

    [LV.6]常住居民II

    3

    主题

    975

    帖子

    288

    积分

    超级影迷

    Rank: 6Rank: 6

    积分
    288

    小土豪勋章

    发表于 2020-11-22 06:55:17 | 显示全部楼层
    感谢分享!
    回复

    使用道具 举报

  • TA的每日心情
    开心
    昨天 10:07
  • 签到天数: 181 天

    [LV.7]常住居民III

    19

    主题

    1310

    帖子

    553

    积分

    专业影迷

    Rank: 8Rank: 8

    积分
    553

    小土豪勋章

    发表于 2020-11-22 08:39:20 | 显示全部楼层
    谢谢版主分享,辛苦了
    回复

    使用道具 举报

  • TA的每日心情
    开心
    昨天 21:13
  • 签到天数: 144 天

    [LV.7]常住居民III

    18

    主题

    1550

    帖子

    174

    积分

    高级影迷

    Rank: 4

    积分
    174
    发表于 2020-11-22 11:08:02 | 显示全部楼层
    感谢分享,支持一下
    回复

    使用道具 举报

  • TA的每日心情
    开心
    1 小时前
  • 签到天数: 146 天

    [LV.7]常住居民III

    1

    主题

    1528

    帖子

    299

    积分

    超级影迷

    Rank: 6Rank: 6

    积分
    299
    发表于 2020-11-22 11:35:26 | 显示全部楼层
    谢谢楼主分享
    回复

    使用道具 举报

  • TA的每日心情
    无聊
    昨天 08:06
  • 签到天数: 1246 天

    [LV.10]以坛为家III

    63

    主题

    2114

    帖子

    1025

    积分

    资深影迷

    Rank: 10Rank: 10Rank: 10

    积分
    1025
    发表于 2020-11-22 18:40:35 | 显示全部楼层
    这个经典,收藏了
    回复

    使用道具 举报

    您需要登录后才可以回帖 登录 | 立即注册

    本版积分规则

    QQ|Archiver|手机版|小黑屋|影迷乐园

    GMT+8, 2020-12-1 03:56 , Processed in 0.095971 second(s), 28 queries .

    Powered by Discuz! X3.4

    Copyright © 2001-2020, Tencent Cloud.

    快速回复 返回顶部 返回列表