请选择 进入手机版 | 继续访问电脑版

YMLY-影迷乐园-特效字幕 蓝光原盘 1080P 高清动漫电影电视剧

 找回密码
 立即注册
搜索
查看: 104|回复: 12

[大陆] [115+百度][2006][1080P][神鬼八阵图.无台标无水印][国语中字][于波.蔡少芬][40集全][MP4][18.25GB]

[复制链接]
  • TA的每日心情
    奋斗
    2020-2-21 00:36
  • 签到天数: 656 天

    [LV.9]以坛为家II

    8185

    主题

    1万

    帖子

    6万

    积分

    超级版主

    与齐同行,是最初的梦想,也是一辈子的执着~

    Rank: 16Rank: 16Rank: 16Rank: 16

    积分
    64083

    内测勋章最佳新人十二生肖之猴VIP包月勋章影迷男神小土豪勋章土豪勋章富甲一方精华勋章金话筒主题达人灌水之王

    发表于 2020-11-21 21:58:25 | 显示全部楼层 |阅读模式
    下载说明:

    百度云网盘分享极其不稳定,如有链接失效,请第一时间站内短消息通知我,上线后会第一时间补发!请大家多多谅解!电驴链接只能115会员离线下载,其它工具都下载不了!




    ◎译  名 八阵图
    ◎片  名 神鬼八阵图
    ◎年  代 2006
    ◎产  地 中国大陆
    ◎类  别 剧情 / 爱情 / 奇幻 / 古装
    ◎语  言 汉语普通话
    ◎上映日期 2006-11-13
    ◎豆瓣评分 7.1/10 from 2106 users
    ◎豆瓣链接 https://movie.douban.com/subject/2890804/
    ◎集  数 40
    ◎片  长 48分钟
    ◎导  演 李文龙
    ◎编  剧 王少波
    ◎主  演 于波 Bo Yu
           蔡少芬 Ada Choi
           杨俊毅 Junyi Yang
           周海媚 Kathy Chow
           卢星宇 Xingyu Lu


    ◎标  签 古装 | 电视剧 | 武侠 | 于波 | 蔡少芬 | 神鬼八阵图 | 国产电视剧 | 杨俊毅

    ◎简  介  

      功盖三分国,名成八阵图,江流石不转,遗恨失吞吴。——唐  杜甫
      公元两百年间,群雄并起,魏、蜀、吴三分天下,诸葛孔明穷毕生精力完成的“八阵图”,因为他的骤然辞世而不知所踪,但后人坚信,这部变化莫测的阵法兵书,会如诸葛武侯预言的,在六百年后再度出世,而且,“得八阵图者,得天下”。
      转眼六百年将至,时当唐玄宗晚年。峻峭高耸的定军山中,世代守护着八阵图的“玄武门”门主马云风,不愿战乱再起,联合门中长老封印蠢蠢欲动的八阵图,谁知女魔头罂素闯入,打破封印,八道光冲天而起,刹时间地动天摇,山谷四壁上八将现形,各持兵器,分别为天灵针、闻悲琴、孔明扇、夜磷刀、龙腾鞭、紫薇剑、黄金戟、和后羿弓。
      奄奄一息的马门主,交代门中最不成材的徒儿荀日照,尽快找到八位将军的后人和八种兵器,以免八阵图复出后落入奸人之手为祸苍生。
      纯真善良但武功低微的荀日照,垂头丧气的回到靖国将军府,当家作主的荀老太君暗自担心,因为荀家数百年来隐姓埋名为的就是因应八阵图复出后的巨变,而继承这一重责大任的荀日照,恰是体内流着诸葛武侯血脉的传人,也是唯一能够开启八阵图的钥匙。
      为恐日照遭逢不测,太君选定的孙媳妇,是长安首富、千家庄庄主千魁之女千寻……一位貌美如花、武艺高强,但是性烈如火、出名难缠的姑娘。
      日照抗拒包办婚姻留书出走,半途中和身世可怜的蝶衣邂逅,日照的善良和慷慨,让蝶衣对他产生了深深的依恋。当他兴冲冲的领着蝶衣父女回到长安城,竟不知蝶衣与千寻原来是同母异父的姐妹,而蝶衣之父韩杰,正想利用他毁掉千寻全家。
      同具侠义心的日照和千寻,在打打闹闹中不自觉的亲近起来。两人结识了江湖中赫赫有名的赏金猎人雪痕,并在不断与奸臣杨国忠作对的过程中结为莫逆。雪痕发现日照异于常人的武学根基,鼓励他勤练内功心法。日照对着荀家密室石壁上的文字潜心修习,武功大进。
      共同经历一场生死劫难后,日照决心迎娶千寻,浑然不知蝶衣对他已是非君不嫁。而始终默默爱着千寻的雪痕,却受到私逃出宫的七公主拾欢热烈追求。还有伶牙俐齿、爱财如命的美艳牙婆桃花,痴心等待着蝶衣的千家庄少庄主千冲……这一众小儿女的爱恨情愁,连带他们的身世使命,纠缠牵绊、扑朔迷离。
      罂素利用她暗中辅佐的节度使安禄山回京的机会,散布八阵图出世的消息,经杨国忠公报私仇的陷害,挑起玄宗猜忌,认定靖国公府隐匿八阵图不报,有谋反叛国的野心,荀太君被玄宗白绫赐死,侥幸逃出火场的日照一夕之间从世袭靖国将军变成了全国通缉的要犯。杨国忠、杨贵妃兄妹和手握重兵的安禄山,在朝野间的明争暗斗白热化,终于各自打着保唐和灭唐的旗帜,在各地掀起战火。
      眼看着百姓流离失所,颓废丧志的日照在千寻和雪痕的鼓励下重新站起来,学成了修真界的绝世武功,仿佛元神出窍般的回到六百年前,亲历先祖诸葛武侯启动八阵图的威力,以及他壮志未酬的最后一战,他认清了自己肩上的重任,逐一寻找到当年八位将军的后人,以各自的祖传兵器联手重起八阵图,帮助太子李亨号召天下勤王之师,平乱复唐,底定天下。
    1. General
    2. Format                         : MPEG-4
    3. Format profile                 : Base Media
    4. Codec ID                       : isom (isom/iso2/avc1/mp41)
    5. File size                      : 468 MiB
    6. Duration                       : 48 min 14 s
    7. Overall bit rate               : 1 356 kb/s
    8. Writing application            : Lavf58.35.100

    9. Video
    10. ID                             : 1
    11. Format                         : AVC
    12. Format/Info                    : Advanced Video Codec
    13. Format profile                 : High@L3.2
    14. Format settings                : CABAC / 4 Ref Frames
    15. Format settings, CABAC         : Yes
    16. Format settings, Reference fra : 4 frames
    17. Codec ID                       : avc1
    18. Codec ID/Info                  : Advanced Video Coding
    19. Duration                       : 48 min 14 s
    20. Bit rate                       : 1 224 kb/s
    21. Width                          : 1 280 pixels
    22. Height                         : 1 010 pixels
    23. Display aspect ratio           : 5:4
    24. Frame rate mode                : Constant
    25. Frame rate                     : 25.000 FPS
    26. Color space                    : YUV
    27. Chroma subsampling             : 4:2:0
    28. Bit depth                      : 8 bits
    29. Scan type                      : Progressive
    30. Bits/(Pixel*Frame)             : 0.038
    31. Stream size                    : 422 MiB (90%)
    32. Color range                    : Limited
    33. Color primaries                : BT.709
    34. Transfer characteristics       : BT.709
    35. Matrix coefficients            : BT.709
    36. Codec configuration box        : avcC

    37. Audio
    38. ID                             : 2
    39. Format                         : AAC LC
    40. Format/Info                    : Advanced Audio Codec Low Complexity
    41. Codec ID                       : mp4a-40-2
    42. Duration                       : 48 min 14 s
    43. Bit rate mode                  : Constant
    44. Bit rate                       : 126 kb/s
    45. Channel(s)                     : 2 channels
    46. Channel layout                 : L R
    47. Sampling rate                  : 44.1 kHz
    48. Frame rate                     : 43.066 FPS (1024 SPF)
    49. Compression mode               : Lossy
    50. Stream size                    : 43.3 MiB (9%)
    51. Default                        : Yes
    52. Alternate group                : 1
    复制代码




    购买主题 已有 1 人购买  本主题需向作者支付 40 大洋 才能浏览
    郑重声明:
    本人提供的所有影视作品均是在网上搜集,任何涉及商业盈利目的均不得使用,否则产生的一切后果将由您自己承担!
    本人不对本人所发布的任何内容负任何法律责任!该下载内容仅做宽带测试使用,请在下载后24小时内删除。请购买正版!
    本人列出的文件没有保存在本站的服务器上,本人仅负责连接,本人对被传播文件的内容一无所知。
    如侵犯视频原作者或发行商版权,请联系本人删除!
    回复

    使用道具 举报

  • TA的每日心情
    开心
    4 天前
  • 签到天数: 104 天

    [LV.6]常住居民II

    4

    主题

    1042

    帖子

    299

    积分

    超级影迷

    Rank: 6Rank: 6

    积分
    299
    发表于 2020-11-21 23:53:03 | 显示全部楼层
    感谢分享!
    回复

    使用道具 举报

  • TA的每日心情
    开心
    昨天 14:02
  • 签到天数: 120 天

    [LV.7]常住居民III

    1

    主题

    1343

    帖子

    240

    积分

    高级影迷

    Rank: 4

    积分
    240
    发表于 2020-11-22 06:39:09 | 显示全部楼层
    谢谢分享!
    回复

    使用道具 举报

  • TA的每日心情
    奋斗
    3 天前
  • 签到天数: 19 天

    [LV.4]偶尔看看III

    20

    主题

    306

    帖子

    107

    积分

    中级影迷

    Rank: 3Rank: 3

    积分
    107
    发表于 2020-11-22 06:46:26 | 显示全部楼层
    看看看看看看扩扩扩扩扩扩扩扩
    回复

    使用道具 举报

  • TA的每日心情
    开心
    2 小时前
  • 签到天数: 101 天

    [LV.6]常住居民II

    3

    主题

    975

    帖子

    288

    积分

    超级影迷

    Rank: 6Rank: 6

    积分
    288

    小土豪勋章

    发表于 2020-11-22 06:50:12 | 显示全部楼层
    感谢分享!
    回复

    使用道具 举报

  • TA的每日心情
    开心
    昨天 21:13
  • 签到天数: 144 天

    [LV.7]常住居民III

    18

    主题

    1550

    帖子

    174

    积分

    高级影迷

    Rank: 4

    积分
    174
    发表于 2020-11-22 11:07:34 | 显示全部楼层
    感谢分享,支持一下
    回复

    使用道具 举报

  • TA的每日心情
    开心
    1 小时前
  • 签到天数: 146 天

    [LV.7]常住居民III

    1

    主题

    1528

    帖子

    299

    积分

    超级影迷

    Rank: 6Rank: 6

    积分
    299
    发表于 2020-11-22 11:36:23 | 显示全部楼层
    谢谢楼主分享
    回复

    使用道具 举报

  • TA的每日心情

    昨天 00:10
  • 签到天数: 9 天

    [LV.3]偶尔看看II

    0

    主题

    158

    帖子

    45

    积分

    初级影迷

    Rank: 2

    积分
    45
    发表于 7 天前 | 显示全部楼层
    经典啊,感谢分享
    回复

    使用道具 举报

  • TA的每日心情

    昨天 00:10
  • 签到天数: 9 天

    [LV.3]偶尔看看II

    0

    主题

    158

    帖子

    45

    积分

    初级影迷

    Rank: 2

    积分
    45
    发表于 5 天前 | 显示全部楼层
    感谢分享!
    回复

    使用道具 举报

  • TA的每日心情

    昨天 00:07
  • 签到天数: 79 天

    [LV.6]常住居民II

    3

    主题

    759

    帖子

    42

    积分

    初级影迷

    Rank: 2

    积分
    42
    发表于 5 天前 | 显示全部楼层
    经典分享感激你啊aa
    回复

    使用道具 举报

    您需要登录后才可以回帖 登录 | 立即注册

    本版积分规则

    QQ|Archiver|手机版|小黑屋|影迷乐园

    GMT+8, 2020-12-1 04:16 , Processed in 0.081963 second(s), 28 queries .

    Powered by Discuz! X3.4

    Copyright © 2001-2020, Tencent Cloud.

    快速回复 返回顶部 返回列表