请选择 进入手机版 | 继续访问电脑版

YMLY-影迷乐园-特效字幕 蓝光原盘 1080P 高清动漫电影电视剧

 找回密码
 立即注册
搜索
查看: 117|回复: 13

[大陆] [115][2003][4K.2160P][奔月.无台标无水印][国语中字][范文芳.李铭顺][30集全][MP4][38.53GB]

[复制链接]
  • TA的每日心情
    奋斗
    2020-2-21 00:36
  • 签到天数: 656 天

    [LV.9]以坛为家II

    8185

    主题

    1万

    帖子

    6万

    积分

    超级版主

    与齐同行,是最初的梦想,也是一辈子的执着~

    Rank: 16Rank: 16Rank: 16Rank: 16

    积分
    64083

    内测勋章最佳新人十二生肖之猴VIP包月勋章影迷男神小土豪勋章土豪勋章富甲一方精华勋章金话筒主题达人灌水之王

    发表于 2020-11-21 22:16:15 | 显示全部楼层 |阅读模式
    下载说明:

    近期百度云和谐的厉害,本剧将采用115网盘的方式分享,只能115网盘会员接收并下载,购买前请看清楚,如需百度云链接请在站内短消息联系我,本人会抽空搬运至百度云网盘,但是需扣除30大洋(论坛币,每天做日常任务可获取)作为搬运费!




    ◎译  名 Moon Fairy / 后羿射日
    ◎片  名 奔月
    ◎年  代 2003
    ◎产  地 中国大陆 / 新加坡 / 中国台湾
    ◎类  别 剧情 / 爱情 / 奇幻
    ◎语  言 汉语普通话
    ◎上映日期 2003-09-05(中国大陆)
    ◎IMDb评分  7.1/10 from 11 users
    ◎IMDb链接  https://www.imdb.com/title/tt0338581
    ◎豆瓣评分 6.6/10 from 2751 users
    ◎豆瓣链接 https://movie.douban.com/subject/1830539/
    ◎集  数 30
    ◎片  长 45分钟
    ◎导  演 潘文杰 Man Kit Poon / 徐惠康 Wai Hong Chui
    ◎编  剧 阮少娜 Siu Nar Yuen
    ◎主  演 范文芳 Fann Wong
           李铭顺 Christopher Lee Ming Shun
           温峥嵘 Zhengrong Wen
           连凯 Andrew Lin
           吴家丽 Carrie Ng
           刘威 Wei Liu
           王绘春 Huichun Wang
           郑则仕 Kent Cheng
           徐锦江 Elvis Tsui
           李进荣 Jinrong Li
           张春仲 Chunzhong Zhang
           周一围 Yiwei Zhou
           吴樾 Yue Wu
           杜宁林 Ninglin Du


    ◎标  签 电视剧 | 范文芳 | 神话 | 新加坡 | 古装 | 李铭顺 | 新加坡剧 | 奔月

    ◎简  介  

      汉朝,淮南王刘安因对上古神话传说感兴趣,被武帝(刘威 饰)使为“离骚赋”,奉旨著书。为收集素材与妻子寻月遍访民间,历经世事,眼见因武帝营宫室、急赋敛、重刑诛而导致盗贼群起、民不聊生,著书锐兴顿减,又因寻月积劳成疾病倒途旅,遂返京上万言谏疏。武帝怒而欲杀之,幸得群臣力保,才于重杖之后 限令三日著成《淮南子》。及至回到家中,方知爱妻已撒手人寰,痛不欲生中挥泪提笔,奋笔二日成书两卷,当写到第五十四篇—后羿嫦娥故事时,因思念亡妻而难以成文,力竭朦寐之中,寻月竟来到眼前,一面替夫磨墨,一面对夫侃侃道出未尽的故事:后羿(李铭顺 饰)如何受天帝之命,斩巨蟒、除八害以救苍生,如何在鸷鸟伤害嫦娥时射鸷鸟以救嫦娥(范文芳 饰)。还说她之所以死后再来相会,只为再次为人再结夫妻缘。说完凌空飞升而去。惊醒的刘安唯见皓月当空,月宫中竟隐现着妻子的身影,于是义思汹涌一夜疾书,青丝尽成白发,终为后人留下后羿射日、嫦娥奔月等旷世神话。人们看到——上古,凡尘多苦难,天上众神却因长生不老而逸乐逍遥。擅射的天神后羿耿直刚烈,经常面斥众神妄顾人间疾苦,故备受排挤。天帝也忌其辛辣言词,遂借故将后羿贬至洞庭看守水族而设闲置散。后羿到职,与孝义渔郎冯夷莫逆,得知巨蟒祸民,欲请天旨杀蟒除害。天后羲和育有十子一女子为太阳,每日分班运行天际,女为嫦娥,性温柔而爱苍生。此时的嫦娥也欲将鸷鸟“大风”为祸中原等七害肆孽之事秉报天帝。天帝恼怒后界抗旨返天、擅闯帝庭,竟命后羿独力除害,事败则永除神籍。后羿虽知九死一生却欣然受命的情操,深深感动了嫦娥。后羿首战鸷鸟,嫦娥暗中助力竟被“大风”吞噬,后羿殊死除害,终于救出嫦娥。生死之中二人心仪,结为爱侣矢志除妖。渔郎冯夷引出巨蟒,与后羿、嫦娥合力杀蟒除害,不幸葬身洞庭。天帝感其志高义正,封夷为神。赐称河伯镇守黄河。河伯羡嫦娥美艳,又不能夺友之爱,情感上的空白埋下了苦种,经常纵情声色发泄闷郁。伏羲之女洛嫔以美色闻名,本是嫁娥好友,后因暗恋后羿芳心寂寥而与河伯惺惺相惜。河伯唆使洛嫔在帝、后面前挑拨,天帝也暗惧后羿的威仪,遂于后羿消灭八害后出尔反尔,托辞后羿对嫦娥不轨,除后羿神籍贬下凡尘。嫦娥感激后羿的爱情誓言,在姑母西王母帮助下暗自下凡与结为夫妻。从此男猎女织相亲相爱于凡人生活。洛嫔自知有过而自悔自疚;河伯弄巧成拙而得不赏失;伏羲则顺水推舟请准,天帝力促女儿与河伯成为一对。羲和因劝女回心不成,震怒之下竟每日增派一个太阳长照大地,胁迫嫦娥就范。顿时,禾木焦枯,江河干涸,生灵涂炭。正当后羿、嫦娥夫妻无奈之际,河伯又施恶计,他偷来大庭神弓,假朋友义托救民辞,挑唆后羿射日解危。后羿射九日,成为英雄。嫦娥丧九兄,伤及夫妻感情。河泊深知后羿之罪必死无疑,窃喜之余对洛嫔弃如敝展,并欲娶凡尘美女,否则就幸灾酿祸。洛嫔既被冷虐又自恨当初,终日以泪洗面。后羿自感获罪嫦娥,终日游猎于野,恰迁洛嫔,恍如隔世。洛嫔虽能明示爱心,后羿却只心爱嫦娥,而河旧的嘲弄,终令洛嫔崩溃而自废神力自溺洛水。在后羿的救助下,洛嫔终于道出河泊与自己的无德行为。后羿虽怒何伯为友不义,为“官”不仁,却念其当初除害有功,只射瞎河伯左目以示警戒。河伯上告天帝奏请杀后羿,未遂。洛嫔也因矢志追后羿未遂而以泪化水为洛(河),永泽大地。天后羲和发誓令后羿、嫦娥死后坠入鬼道永不超生。后羿不忍爱妻受累遭劫,遂以凡身历经艰险独闯昆仑,向西王母求来不死仙丹,并定于八月十五月圆之夜与嫦娥同服仙丹。岂知羲和为报丧子之仇,己先期见嫦娥勒令:若二人同服仙丹都获长生,天庭将会合众神严惩,变后羿为蟾蜍。若嫦娥一人服丹则能重返月宫,后羿亦可再世为人。嫦娥虽难舍夫妻恩爱,却不忍丈夫世世变成怪物,遂于月圆之夜独吞仙丹飞上月宫。后羿却误解了爱妻,由此狂躁放浪自暴自弃。嫦娥虽能洞察却无以解救,枉自伤绝。西王母于叹息之下预言:二千年后的月食之夜,嫦娥将再次下凡,与后羿重拾夫妻之缘。逢蒙虽受师恩却恨师能,终于杀心暗起。而此时的后羿己了无生趣,宁愿早日解脱。于是,一柄桃木锥乘界不备灌顶而来,一代英雄空留千古遗恨。——鸡鸣天白时,刘安力竭倒地。武帝念其三日能成巨著[淮南子],意欲放生而不咎以往。而刘安却自请饮鸩家中,伴亡妻而去。孰料西王母己派仙童手捧仙丹久候多时……
    1. General
    2. Format                         : MPEG-4
    3. Format profile                 : Base Media
    4. Codec ID                       : isom (isom/iso2/mp41)
    5. File size                      : 1.49 GiB
    6. Duration                       : 46 min 43 s
    7. Overall bit rate               : 4 552 kb/s
    8. Writing application            : Lavf58.13.100

    9. Video
    10. ID                             : 1
    11. Format                         : HEVC
    12. Format/Info                    : High Efficiency Video Coding
    13. Format profile                 : Main@L5@Main
    14. Codec ID                       : hev1
    15. Codec ID/Info                  : High Efficiency Video Coding
    16. Duration                       : 46 min 43 s
    17. Bit rate                       : 4 355 kb/s
    18. Width                          : 2 880 pixels
    19. Height                         : 2 160 pixels
    20. Display aspect ratio           : 4:3
    21. Frame rate mode                : Constant
    22. Frame rate                     : 25.000 FPS
    23. Color space                    : YUV
    24. Chroma subsampling             : 4:2:0
    25. Bit depth                      : 8 bits
    26. Bits/(Pixel*Frame)             : 0.028
    27. Stream size                    : 1.42 GiB (96%)
    28. Codec configuration box        : hvcC

    29. Audio
    30. ID                             : 2
    31. Format                         : AAC LC
    32. Format/Info                    : Advanced Audio Codec Low Complexity
    33. Codec ID                       : mp4a-40-2
    34. Duration                       : 46 min 43 s
    35. Bit rate mode                  : Constant
    36. Bit rate                       : 192 kb/s
    37. Channel(s)                     : 2 channels
    38. Channel layout                 : L R
    39. Sampling rate                  : 44.1 kHz
    40. Frame rate                     : 43.066 FPS (1024 SPF)
    41. Compression mode               : Lossy
    42. Stream size                    : 63.4 MiB (4%)
    43. Default                        : Yes
    44. Alternate group                : 1
    复制代码




    购买主题 已有 1 人购买  本主题需向作者支付 60 大洋 才能浏览
    郑重声明:
    本人提供的所有影视作品均是在网上搜集,任何涉及商业盈利目的均不得使用,否则产生的一切后果将由您自己承担!
    本人不对本人所发布的任何内容负任何法律责任!该下载内容仅做宽带测试使用,请在下载后24小时内删除。请购买正版!
    本人列出的文件没有保存在本站的服务器上,本人仅负责连接,本人对被传播文件的内容一无所知。
    如侵犯视频原作者或发行商版权,请联系本人删除!
    回复

    使用道具 举报

  • TA的每日心情
    开心
    1 小时前
  • 签到天数: 146 天

    [LV.7]常住居民III

    1

    主题

    1528

    帖子

    299

    积分

    超级影迷

    Rank: 6Rank: 6

    积分
    299
    发表于 2020-11-21 22:29:29 | 显示全部楼层
    谢谢楼主分享
    回复

    使用道具 举报

  • TA的每日心情
    开心
    4 天前
  • 签到天数: 104 天

    [LV.6]常住居民II

    4

    主题

    1042

    帖子

    299

    积分

    超级影迷

    Rank: 6Rank: 6

    积分
    299
    发表于 2020-11-21 23:53:24 | 显示全部楼层
    感谢分享!
    回复

    使用道具 举报

  • TA的每日心情
    开心
    昨天 14:02
  • 签到天数: 120 天

    [LV.7]常住居民III

    1

    主题

    1343

    帖子

    240

    积分

    高级影迷

    Rank: 4

    积分
    240
    发表于 2020-11-22 06:38:24 | 显示全部楼层
    感谢分享!
    回复

    使用道具 举报

  • TA的每日心情
    奋斗
    3 天前
  • 签到天数: 19 天

    [LV.4]偶尔看看III

    20

    主题

    306

    帖子

    107

    积分

    中级影迷

    Rank: 3Rank: 3

    积分
    107
    发表于 2020-11-22 06:42:54 | 显示全部楼层
    看看看看看看扩扩扩扩
    回复

    使用道具 举报

  • TA的每日心情
    开心
    3 小时前
  • 签到天数: 101 天

    [LV.6]常住居民II

    3

    主题

    975

    帖子

    288

    积分

    超级影迷

    Rank: 6Rank: 6

    积分
    288

    小土豪勋章

    发表于 2020-11-22 06:49:56 | 显示全部楼层
    感谢分享!
    回复

    使用道具 举报

  • TA的每日心情

    昨天 00:07
  • 签到天数: 79 天

    [LV.6]常住居民II

    3

    主题

    759

    帖子

    42

    积分

    初级影迷

    Rank: 2

    积分
    42
    发表于 2020-11-22 09:24:17 | 显示全部楼层
    民间故事嫦娥么啊
    回复

    使用道具 举报

  • TA的每日心情
    开心
    昨天 21:13
  • 签到天数: 144 天

    [LV.7]常住居民III

    18

    主题

    1550

    帖子

    174

    积分

    高级影迷

    Rank: 4

    积分
    174
    发表于 2020-11-22 11:06:59 | 显示全部楼层
    感谢分享,支持一下
    回复

    使用道具 举报

  • TA的每日心情
    开心
    1 小时前
  • 签到天数: 146 天

    [LV.7]常住居民III

    1

    主题

    1528

    帖子

    299

    积分

    超级影迷

    Rank: 6Rank: 6

    积分
    299
    发表于 2020-11-22 11:37:04 | 显示全部楼层
    谢谢楼主分享
    回复

    使用道具 举报

  • TA的每日心情

    昨天 09:37
  • 签到天数: 17 天

    [LV.4]偶尔看看III

    0

    主题

    171

    帖子

    21

    积分

    入门影迷

    Rank: 1

    积分
    21
    发表于 7 天前 | 显示全部楼层
    嫦娥奔月~还有个砍柴的
    回复

    使用道具 举报

    您需要登录后才可以回帖 登录 | 立即注册

    本版积分规则

    QQ|Archiver|手机版|小黑屋|影迷乐园

    GMT+8, 2020-12-1 04:36 , Processed in 0.069671 second(s), 28 queries .

    Powered by Discuz! X3.4

    Copyright © 2001-2020, Tencent Cloud.

    快速回复 返回顶部 返回列表