请选择 进入手机版 | 继续访问电脑版

YMLY-影迷乐园-特效字幕 蓝光原盘 1080P 高清动漫电影电视剧

 找回密码
 立即注册
搜索
查看: 4033|回复: 126

[美国] [115+百度][2021][1080P][旺达幻视][英语.外挂中英SUP特效字幕][9集全][MKV][14.81GB][WandaVision.S01.1080p.DSNP.WEB-DL.DDP5.1.Atmos.H.264-CMRG]

  [复制链接]
  • TA的每日心情
    奋斗
    2020-2-21 00:36
  • 签到天数: 656 天

    [LV.9]以坛为家II

    1万

    主题

    1万

    帖子

    9万

    积分

    超级版主

    与齐同行,是最初的梦想,也是一辈子的执着~

    Rank: 16Rank: 16Rank: 16Rank: 16

    积分
    93142

    内测勋章最佳新人十二生肖之猴VIP包月勋章影迷男神小土豪勋章土豪勋章富甲一方精华勋章金话筒主题达人灌水之王

    发表于 2021-1-16 07:42:34 | 显示全部楼层 |阅读模式
    下载说明:

    百度云网盘分享极其不稳定,如有链接失效,请第一时间站内短消息通知我,上线后会第一时间补发!


    片源来源网络,后缀为CMRG,特效字幕来自酷漫字幕组,片尾演职未做特效,在意的请勿购买,只做尝鲜用。



    ◎译  名 旺达幻视 / Vision and the Scarlet Witch / Wanda Maximoff and The Vision / Wanda Vision / 幻视与猩红女巫 / 幻视与绯红女巫 / 旺达·幻视 / 旺达与幻视 / 旺达幻象
    ◎片  名 WandaVision
    ◎年  代 2021
    ◎产  地 美国
    ◎类  别 动作 / 爱情 / 科幻
    ◎语  言 英语
    ◎上映日期 2021-01-15(美国)
    ◎IMDb链接  https://www.imdb.com/title/tt9140560
    ◎豆瓣评分 0/10 from 0 users
    ◎豆瓣链接 https://movie.douban.com/subject/30331433/
    ◎集  数 9
    ◎片  长 30分钟
    ◎导  演 马特·沙克曼 Matt Shakman
    ◎编  剧 雅克·舍费尔 Jac Schaeffer / 斯坦·李 Stan Lee
    ◎主  演 伊丽莎白·奥尔森 Elizabeth Olsen
           保罗·贝坦尼 Paul Bettany
           凯瑟琳·哈恩 Kathryn Hahn
           凯特·戴琳斯 Kat Dennings
           泰柔娜·派丽丝 Teyonah Parris
           兰道尔·朴 Randall Park
           茱莲妮·普迪 Jolene Purdy
           格蕾·德丽斯勒 Grey DeLisle
           艾玛·考尔菲德 Emma Caulfield


    ◎标  签 漫威 | 绯红女巫 | Marvel | 美剧 | 伊丽莎白·奥尔森 | 科幻 | 漫改 | 伊丽莎白奥尔森

    ◎简  介  

      伊丽莎白·奥尔森、保罗·贝坦尼、凯瑟琳·哈恩、凯特·戴琳斯主演漫威新剧《旺达幻视》定档,将于明年1月15日在美国网络上线。本季共9集,围绕幻视和猩红女巫的爱情和冒险展开。

    ◎获奖情况  

      第7届豆瓣电影年度榜单(2020)
      最值得期待的剧集(提名)

















    1. General
    2. Unique ID                      : 63176333436776272201328008683576941106 (0x2F8751B955EEEBC254E135044B5CDA32)
    3. Complete name                  : D:\用户目录\我的文档\Tencent Files\754975714\FileRecv\WandaVision.S01E01.1080p.DSNP.WEB-DL.DDP5.1.Atmos.H.264-CMRG.mkv
    4. Format                         : Matroska
    5. Format version                 : Version 4 / Version 2
    6. File size                      : 1.34 GiB
    7. Duration                       : 26 min 33 s
    8. Overall bit rate mode          : Variable
    9. Overall bit rate               : 7 216 kb/s
    10. Encoded date                   : UTC 2021-01-15 11:32:07
    11. Writing application            : mkvmerge v50.0.0 ('Awakenings') 64-bit
    12. Writing library                : libebml v1.4.0 + libmatroska v1.6.2

    13. Video
    14. ID                             : 1
    15. Format                         : AVC
    16. Format/Info                    : Advanced Video Codec
    17. Format profile                 : High@L4
    18. Format settings                : CABAC / 4 Ref Frames
    19. Format settings, CABAC         : Yes
    20. Format settings, ReFrames      : 4 frames
    21. Codec ID                       : V_MPEG4/ISO/AVC
    22. Duration                       : 26 min 33 s
    23. Bit rate mode                  : Variable
    24. Bit rate                       : 6 444 kb/s
    25. Maximum bit rate               : 12.7 Mb/s
    26. Width                          : 1 920 pixels
    27. Height                         : 1 080 pixels
    28. Display aspect ratio           : 16:9
    29. Frame rate mode                : Constant
    30. Frame rate                     : 23.976 (24000/1001) FPS
    31. Color space                    : YUV
    32. Chroma subsampling             : 4:2:0
    33. Bit depth                      : 8 bits
    34. Scan type                      : Progressive
    35. Bits/(Pixel*Frame)             : 0.130
    36. Stream size                    : 1.19 GiB (89%)
    37. Default                        : Yes
    38. Forced                         : No
    39. Color range                    : Limited
    40. Color primaries                : BT.709
    41. Transfer characteristics       : BT.709
    42. Matrix coefficients            : BT.709

    43. Audio
    44. ID                             : 2
    45. Format                         : E-AC-3
    46. Format/Info                    : Enhanced Audio Coding 3
    47. Format profile                 : E-AC-3+Atmos / E-AC-3
    48. Codec ID                       : A_EAC3
    49. Duration                       : 26 min 33 s
    50. Bit rate mode                  : Constant
    51. Bit rate                       : 768 kb/s
    52. Channel(s)                     : 15 objects / 6 channels
    53. Channel positions              : 15 objects / Front: L C R, Side: L R, LFE
    54. Sampling rate                  : 48.0 kHz
    55. Frame rate                     : 187.500 FPS (256 SPF)
    56. Compression mode               : Lossy
    57. Stream size                    : 146 MiB (11%)
    58. Title                          : English
    59. Language                       : English
    60. Service kind                   : Complete Main
    61. Default                        : No
    62. Forced                         : No

    63. Text #1
    64. ID                             : 3
    65. Format                         : UTF-8
    66. Codec ID                       : S_TEXT/UTF8
    67. Codec ID/Info                  : UTF-8 Plain Text
    68. Duration                       : 25 min 44 s
    69. Bit rate                       : 67 b/s
    70. Count of elements              : 413
    71. Stream size                    : 12.8 KiB (0%)
    72. Title                          : Brazilian Portuguese
    73. Language                       : Portuguese
    74. Default                        : No
    75. Forced                         : No

    76. Text #2
    77. ID                             : 4
    78. Format                         : UTF-8
    79. Codec ID                       : S_TEXT/UTF8
    80. Codec ID/Info                  : UTF-8 Plain Text
    81. Duration                       : 21 min 42 s
    82. Bit rate                       : 66 b/s
    83. Count of elements              : 376
    84. Stream size                    : 10.6 KiB (0%)
    85. Title                          : French Canadian
    86. Language                       : French
    87. Default                        : No
    88. Forced                         : No

    89. Text #3
    90. ID                             : 5
    91. Format                         : UTF-8
    92. Codec ID                       : S_TEXT/UTF8
    93. Codec ID/Info                  : UTF-8 Plain Text
    94. Duration                       : 25 min 47 s
    95. Bit rate                       : 57 b/s
    96. Count of elements              : 270
    97. Stream size                    : 10.9 KiB (0%)
    98. Title                          : Danish
    99. Language                       : Danish
    100. Default                        : No
    101. Forced                         : No

    102. Text #4
    103. ID                             : 6
    104. Format                         : UTF-8
    105. Codec ID                       : S_TEXT/UTF8
    106. Codec ID/Info                  : UTF-8 Plain Text
    107. Duration                       : 25 min 44 s
    108. Bit rate                       : 60 b/s
    109. Count of elements              : 367
    110. Stream size                    : 11.4 KiB (0%)
    111. Title                          : German
    112. Language                       : German
    113. Default                        : No
    114. Forced                         : No

    115. Text #5
    116. ID                             : 7
    117. Format                         : UTF-8
    118. Codec ID                       : S_TEXT/UTF8
    119. Codec ID/Info                  : UTF-8 Plain Text
    120. Duration                       : 21 min 0 s
    121. Bit rate                       : 92 b/s
    122. Count of elements              : 448
    123. Stream size                    : 14.2 KiB (0%)
    124. Title                          : English [SDH]
    125. Language                       : English
    126. Default                        : No
    127. Forced                         : No

    128. Text #6
    129. ID                             : 8
    130. Format                         : UTF-8
    131. Codec ID                       : S_TEXT/UTF8
    132. Codec ID/Info                  : UTF-8 Plain Text
    133. Duration                       : 20 min 57 s
    134. Bit rate                       : 87 b/s
    135. Count of elements              : 413
    136. Stream size                    : 13.4 KiB (0%)
    137. Title                          : English
    138. Language                       : English
    139. Default                        : No
    140. Forced                         : No

    141. Text #7
    142. ID                             : 9
    143. Format                         : UTF-8
    144. Codec ID                       : S_TEXT/UTF8
    145. Codec ID/Info                  : UTF-8 Plain Text
    146. Duration                       : 25 min 44 s
    147. Bit rate                       : 66 b/s
    148. Count of elements              : 410
    149. Stream size                    : 12.5 KiB (0%)
    150. Title                          : European Spanish
    151. Language                       : Spanish
    152. Default                        : No
    153. Forced                         : No

    154. Text #8
    155. ID                             : 10
    156. Format                         : UTF-8
    157. Codec ID                       : S_TEXT/UTF8
    158. Codec ID/Info                  : UTF-8 Plain Text
    159. Duration                       : 25 min 45 s
    160. Bit rate                       : 56 b/s
    161. Count of elements              : 408
    162. Stream size                    : 10.6 KiB (0%)
    163. Title                          : Finnish
    164. Language                       : Finnish
    165. Default                        : No
    166. Forced                         : No

    167. Text #9
    168. ID                             : 11
    169. Format                         : UTF-8
    170. Codec ID                       : S_TEXT/UTF8
    171. Codec ID/Info                  : UTF-8 Plain Text
    172. Duration                       : 25 min 44 s
    173. Bit rate                       : 56 b/s
    174. Count of elements              : 377
    175. Stream size                    : 10.6 KiB (0%)
    176. Title                          : French
    177. Language                       : French
    178. Default                        : No
    179. Forced                         : No

    180. Text #10
    181. ID                             : 12
    182. Format                         : UTF-8
    183. Codec ID                       : S_TEXT/UTF8
    184. Codec ID/Info                  : UTF-8 Plain Text
    185. Duration                       : 25 min 47 s
    186. Bit rate                       : 59 b/s
    187. Count of elements              : 413
    188. Stream size                    : 11.3 KiB (0%)
    189. Title                          : Italian
    190. Language                       : Italian
    191. Default                        : No
    192. Forced                         : No

    193. Text #11
    194. ID                             : 13
    195. Format                         : UTF-8
    196. Codec ID                       : S_TEXT/UTF8
    197. Codec ID/Info                  : UTF-8 Plain Text
    198. Duration                       : 25 min 44 s
    199. Bit rate                       : 59 b/s
    200. Count of elements              : 340
    201. Stream size                    : 11.2 KiB (0%)
    202. Title                          : Dutch
    203. Language                       : Dutch
    204. Default                        : No
    205. Forced                         : No

    206. Text #12
    207. ID                             : 14
    208. Format                         : UTF-8
    209. Codec ID                       : S_TEXT/UTF8
    210. Codec ID/Info                  : UTF-8 Plain Text
    211. Duration                       : 25 min 45 s
    212. Bit rate                       : 55 b/s
    213. Count of elements              : 408
    214. Stream size                    : 10.5 KiB (0%)
    215. Title                          : Norwegian
    216. Language                       : Norwegian
    217. Default                        : No
    218. Forced                         : No

    219. Text #13
    220. ID                             : 15
    221. Format                         : UTF-8
    222. Codec ID                       : S_TEXT/UTF8
    223. Codec ID/Info                  : UTF-8 Plain Text
    224. Duration                       : 25 min 44 s
    225. Bit rate                       : 64 b/s
    226. Count of elements              : 380
    227. Stream size                    : 12.1 KiB (0%)
    228. Title                          : Portuguese
    229. Language                       : Portuguese
    230. Default                        : No
    231. Forced                         : No

    232. Text #14
    233. ID                             : 16
    234. Format                         : UTF-8
    235. Codec ID                       : S_TEXT/UTF8
    236. Codec ID/Info                  : UTF-8 Plain Text
    237. Duration                       : 25 min 44 s
    238. Bit rate                       : 63 b/s
    239. Count of elements              : 405
    240. Stream size                    : 12.0 KiB (0%)
    241. Title                          : Spanish
    242. Language                       : Spanish
    243. Default                        : No
    244. Forced                         : No

    245. Text #15
    246. ID                             : 17
    247. Format                         : UTF-8
    248. Codec ID                       : S_TEXT/UTF8
    249. Codec ID/Info                  : UTF-8 Plain Text
    250. Duration                       : 25 min 44 s
    251. Bit rate                       : 62 b/s
    252. Count of elements              : 329
    253. Stream size                    : 11.7 KiB (0%)
    254. Title                          : Swedish
    255. Language                       : Swedish
    256. Default                        : No
    257. Forced                         : No
    复制代码



    购买主题 已有 77 人购买  本主题需向作者支付 30 大洋 才能浏览
    郑重声明:
    本人提供的所有影视作品均是在网上搜集,任何涉及商业盈利目的均不得使用,否则产生的一切后果将由您自己承担!
    本人不对本人所发布的任何内容负任何法律责任!该下载内容仅做宽带测试使用,请在下载后24小时内删除。请购买正版!
    本人列出的文件没有保存在本站的服务器上,本人仅负责连接,本人对被传播文件的内容一无所知。
    如侵犯视频原作者或发行商版权,请联系本人删除!
    回复

    使用道具 举报

  • TA的每日心情
    奋斗
    昨天 09:08
  • 签到天数: 232 天

    [LV.7]常住居民III

    0

    主题

    377

    帖子

    54

    积分

    初级影迷

    Rank: 2

    积分
    54
    发表于 2021-1-16 10:10:39 | 显示全部楼层
    谢谢分享的
    回复

    使用道具 举报

  • TA的每日心情
    无聊
    昨天 17:03
  • 签到天数: 356 天

    [LV.8]以坛为家I

    2

    主题

    1882

    帖子

    122

    积分

    中级影迷

    Rank: 3Rank: 3

    积分
    122
    发表于 2021-1-16 10:23:34 | 显示全部楼层
    资源出的很快啊
    回复

    使用道具 举报

  • TA的每日心情
    开心
    2020-6-7 21:35
  • 签到天数: 1 天

    [LV.1]初来乍到

    1

    主题

    330

    帖子

    89

    积分

    中级影迷

    Rank: 3Rank: 3

    积分
    89
    发表于 2021-1-16 10:45:56 | 显示全部楼层
    谢谢分享!
    回复

    使用道具 举报

  • TA的每日心情
    开心
    2021-3-30 10:37
  • 签到天数: 188 天

    [LV.7]常住居民III

    0

    主题

    585

    帖子

    77

    积分

    中级影迷

    Rank: 3Rank: 3

    积分
    77
    发表于 2021-1-16 10:47:27 | 显示全部楼层
    感谢楼主分享
    回复

    使用道具 举报

  • TA的每日心情
    无聊
    昨天 19:46
  • 签到天数: 126 天

    [LV.7]常住居民III

    1

    主题

    1251

    帖子

    122

    积分

    中级影迷

    Rank: 3Rank: 3

    积分
    122
    发表于 2021-1-16 11:05:07 | 显示全部楼层
    漫威新剧来看看
    回复

    使用道具 举报

  • TA的每日心情
    难过
    昨天 14:23
  • 签到天数: 184 天

    [LV.7]常住居民III

    5

    主题

    1338

    帖子

    390

    积分

    超级影迷

    Rank: 6Rank: 6

    积分
    390
    发表于 2021-1-16 11:07:12 | 显示全部楼层
    感谢分享!
    回复

    使用道具 举报

  • TA的每日心情

    昨天 10:45
  • 签到天数: 206 天

    [LV.7]常住居民III

    0

    主题

    1576

    帖子

    116

    积分

    中级影迷

    Rank: 3Rank: 3

    积分
    116
    发表于 2021-1-16 11:28:06 | 显示全部楼层
    支持一下 不错了 很好
    回复

    使用道具 举报

  • TA的每日心情
    开心
    昨天 07:03
  • 签到天数: 268 天

    [LV.8]以坛为家I

    1

    主题

    3016

    帖子

    543

    积分

    专业影迷

    Rank: 8Rank: 8

    积分
    543
    发表于 2021-1-16 11:46:10 | 显示全部楼层
    谢谢楼主分享
    回复

    使用道具 举报

  • TA的每日心情

    2019-10-24 00:15
  • 签到天数: 5 天

    [LV.2]偶尔看看I

    0

    主题

    1494

    帖子

    148

    积分

    中级影迷

    Rank: 3Rank: 3

    积分
    148
    发表于 2021-1-16 11:55:29 | 显示全部楼层
    感谢分享。
    回复

    使用道具 举报

    您需要登录后才可以回帖 登录 | 立即注册

    本版积分规则

    QQ|Archiver|手机版|小黑屋|影迷乐园

    GMT+8, 2021-4-15 07:16 , Processed in 0.111775 second(s), 28 queries .

    Powered by Discuz! X3.4

    Copyright © 2001-2020, Tencent Cloud.

    快速回复 返回顶部 返回列表