请选择 进入手机版 | 继续访问电脑版

YMLY-影迷乐园-特效字幕 蓝光原盘 1080P 高清动漫电影电视剧

 找回密码
 立即注册
搜索
查看: 547|回复: 39

[美国] [115][2005][世界大战][国英双语.简中.中英字幕][27.99GB][MKV][War.of.the.Worlds.2005.BluRay.2160p.x265.10bit.HDR.2Audio.mUHD-FRDS]

[复制链接]
  • TA的每日心情
    奋斗
    2020-2-21 00:36
  • 签到天数: 656 天

    [LV.9]以坛为家II

    1万

    主题

    1万

    帖子

    9万

    积分

    超级版主

    与齐同行,是最初的梦想,也是一辈子的执着~

    Rank: 16Rank: 16Rank: 16Rank: 16

    积分
    93142

    内测勋章最佳新人十二生肖之猴VIP包月勋章影迷男神小土豪勋章土豪勋章富甲一方精华勋章金话筒主题达人灌水之王

    发表于 2021-3-17 14:31:00 | 显示全部楼层 |阅读模式
    下载说明:

    只能115会员离线下载,其它工具都下载不了,购买前请看清楚,一经出售,一概不退款!


    ----转载自FRDS,感谢压制和原发布人员,特此鸣谢!----


    制作说明:

    制作说明:原盘来自BeyondHD,次世代北影国语音轨来自gumfifa@CNLANG,国配字幕来自iamhe@SSDForum,特此鸣谢!保留原盘三种字幕,以上素材未经原作者许可不可提取二发




    ◎译  名 世界之战 / 世界大战 / 宇宙战争 / 强战世界(港) / 星际战争
    ◎片  名 War of the Worlds
    ◎年  代 2005
    ◎产  地 美国
    ◎类  别 科幻 / 惊悚 / 灾难
    ◎语  言 英语
    ◎上映日期 2005-06-29(美国) / 2005-08-25(中国大陆)
    ◎IMDb评分  6.5/10 from 406534 users
    ◎IMDb链接  https://www.imdb.com/title/tt0407304
    ◎豆瓣评分 6.6/10 from 68520 users
    ◎豆瓣链接 https://movie.douban.com/subject/1309044/
    ◎片  长 116分钟
    ◎导  演 史蒂文·斯皮尔伯格 Steven Spielberg
    ◎编  剧 乔什·弗莱德曼 Josh Friedman / 大卫·凯普 David Koepp / 赫伯特·乔治·威尔斯 H.G. Wells
    ◎主  演 汤姆·克鲁斯 Tom Cruise
           达科塔·范宁 Dakota Fanning
           米兰达·奥图 Miranda Otto
           贾斯汀·查特文 Justin Chatwin
           蒂姆·罗宾斯 Tim Robbins
           瑞克·冈萨雷斯 Rick Gonzalez
           尤尔·瓦斯克斯 Yul Vazquez
           莱尼·维尼托 Lenny Venito
           丽萨·安·沃尔特 Lisa Ann Walter
           安·鲁滨逊 Ann Robinson
           吉恩·巴瑞 Gene Barry
           大卫·阿伦·伯施理 David Alan Basche
           罗兹·亚布拉姆斯 Roz Abrams
           迈克尔·布朗李 Michael Brownlee
           卡米莉亚·莫内特 Camillia Monet
           艾米·莱安 Amy Ryan
           丹尼·霍奇 Danny Hoch


    ◎标  签 科幻 | 灾难 | 美国 | 斯皮尔伯格 | 汤姆·克鲁斯 | 美国电影 | TomCruise | StevenSpielberg

    ◎简  介  

      雷•费瑞尔(汤姆•克鲁斯 Tom Cruise 饰)和妻子离婚了,一儿一女都跟母亲生活——因为他的的贪玩懒散,疏忽责任,这个家庭才如此支离破碎。一场外星人入侵的灾难却让他们重新建立起亲密的的关系。
      这天妻子繁忙,只好把儿女交给雷照顾。电闪雷鸣天色灰暗,一切好像有些异样。 果然,马路上赫然一个庞大的三脚飞行器掘地而起,邪恶的火星人光顾了这个本来平静的小镇。人们四处逃亡,雷也带着女儿奔走逃命,开始了生死历险。当局想尽办法对付外星人,却屡屡失败,整个世界都陷入了恐慌当中。
      有了父爱的本能,平日吊儿郎当的父亲变得英勇顽强,保护儿女成了他支撑他的动力和信念。

    ◎获奖情况  

      第78届奥斯卡金像奖(2006)
      最佳视觉效果(提名) 巴勃罗·赫尔曼 / 丹尼斯·穆伦 / 兰迪·杜特拉 / 丹尼尔·萨迪克
      最佳混音(提名) 安迪·尼尔森 / 安娜·贝尔莫 / 朗·贾金斯
      最佳音效剪辑(提名) 理查德·金

      第15届MTV电影奖(2006)
      MTV电影奖 最佳惊恐戏表演(提名) 达科塔·范宁
    1. General
    2. Unique ID                      : 80081835792097647225067800360539568098 (0x3C3F3357986E4EDBE6C38BBDDBDEB7E2)
    3. Format                         : Matroska
    4. Format version                 : Version 4
    5. File size                      : 28.0 GiB
    6. Duration                       : 1 h 56 min
    7. Overall bit rate mode          : Variable
    8. Overall bit rate               : 34.4 Mb/s
    9. Encoded date                   : UTC 2020-09-18 23:53:09
    10. Writing application            : mkvmerge v44.0.0 ('Domino') 64-bit
    11. Writing library                : libebml v1.3.10 + libmatroska v1.5.2

    12. Video
    13. ID                             : 1
    14. Format                         : HEVC
    15. Format/Info                    : High Efficiency Video Coding
    16. Format profile                 : Main 10@L5.1@High
    17. HDR format                     : SMPTE ST 2086, HDR10 compatible
    18. Codec ID                       : V_MPEGH/ISO/HEVC
    19. Duration                       : 1 h 56 min
    20. Bit rate                       : 27.0 Mb/s
    21. Width                          : 3 840 pixels
    22. Height                         : 2 160 pixels
    23. Display aspect ratio           : 16:9
    24. Frame rate mode                : Constant
    25. Frame rate                     : 23.976 (24000/1001) FPS
    26. Color space                    : YUV
    27. Chroma subsampling             : 4:2:0
    28. Bit depth                      : 10 bits
    29. Bits/(Pixel*Frame)             : 0.136
    30. Stream size                    : 22.0 GiB (79%)
    31. Writing library                : x265 3.3+3-g8f8e332f1+29:[Windows][#Erg`Djh#][@Yuuki] made by @Dongfangbubai
    32. Encoding settings              : rc=crf / crf=21.0000 / qcomp=0.70 / qpstep=4 / stats-write=0 / stats-read=0 / vbv-maxrate=160000 / vbv-bufsize=160000 / vbv-init=0.9 / crf-max=0.0 / crf-min=0.0 / no-lossless / no-cu-lossless / aq-mode=3 / aq-strength=0.80 / cbqpoffs=-3 / crqpoffs=-3 / ipratio=1.40 / pbratio=1.30 / psy-rd=2.00 / psy-rdoq=3.00 / deblock=-1:-1 / ref=5 / limit-refs=0 / no-limit-modes / bframes=8 / b-adapt=2 / bframe-bias=0 / b-pyramid / b-intra / weightp / weightb / min-keyint=23 / max-keyint=240 / rc-lookahead=60 / gop-lookahead=0 / scenecut=40 / hist-scenecut=0 / radl=0 / max-cu-size=32 / min-cu-size=8 / me=3 / subme=4 / merange=25 / rdoq-level=2 / rd=4 / rdpenalty=1 / dynamic-rd=0.00 / no-rd-refine / ----- / no-cutree / no-sao / no-rect / no-amp / no-open-gop / wpp / pmode / pme / no-psnr / no-ssim / nr-intra=0 / nr-inter=0 / no-constrained-intra / no-strong-intra-smoothing / max-tu-size=32 / tu-inter-depth=2 / tu-intra-depth=2 / limit-tu=0 / qg-size=32 / qpmax=69 / qpmin=0 / ----- / cpuid=1111039 / frame-threads=6 / numa-pools=54,- / log-level=2 / input-csp=1 / input-res=3840x2160 / interlace=0 / level-idc=0 / high-tier=1 / uhd-bd=0 / no-allow-non-conformance / no-repeat-headers / no-aud / hrd / info / hash=0 / no-temporal-layers / lookahead-slices=0 / no-splice / no-intra-refresh / no-ssim-rd / signhide / no-tskip / max-merge=3 / temporal-mvp / no-frame-dup / no-hme / no-analyze-src-pics / no-sao-non-deblock / selective-sao=0 / no-early-skip / no-rskip / no-fast-intra / no-tskip-fast / no-splitrd-skip / zone-count=0 / no-strict-cbr / no-rc-grain / no-const-vbv / sar=0 / overscan=0 / videoformat=5 / range=0 / colorprim=9 / transfer=16 / colormatrix=9 / chromaloc=0 / display-window=0 / master-display=G(13250,34500)B(7500,3000)R(34000,16000)WP(15635,16450)L(10000000,1) / cll=993,419 / min-luma=0 / max-luma=1023 / log2-max-poc-lsb=8 / vui-timing-info / vui-hrd-info / slices=1 / no-opt-qp-pps / no-opt-ref-list-length-pps / no-multi-pass-opt-rps / scenecut-bias=0.05 / hist-threshold=0.01 / no-opt-cu-delta-qp / no-aq-motion / hdr10 / hdr10-opt / no-dhdr10-opt / no-idr-recovery-sei / analysis-reuse-level=0 / analysis-save-reuse-level=0 / analysis-load-reuse-level=0 / scale-factor=0 / refine-intra=0 / refine-inter=0 / refine-mv=1 / refine-ctu-distortion=0 / no-limit-sao / ctu-info=0 / no-lowpass-dct / refine-analysis-type=0 / copy-pic=1 / max-ausize-factor=1.0 / no-dynamic-refine / no-single-sei / no-hevc-aq / no-svt / no-field / qp-adaptation-range=1.00 / no-scenecut-aware-qpconformance-window-offsets / right=0 / bottom=0
    33. Default                        : Yes
    34. Forced                         : No
    35. Color range                    : Limited
    36. Color primaries                : BT.2020
    37. Transfer characteristics       : PQ
    38. Matrix coefficients            : BT.2020 non-constant
    39. Mastering display color primar : Display P3
    40. Mastering display luminance    : min: 0.0001 cd/m2, max: 1000 cd/m2
    41. Maximum Content Light Level    : 993 cd/m2
    42. Maximum Frame-Average Light Le : 419 cd/m2

    43. Audio #1
    44. ID                             : 2
    45. Format                         : MLP FBA 16-ch
    46. Format/Info                    : Meridian Lossless Packing FBA with 16-channel presentation
    47. Commercial name                : Dolby TrueHD with Dolby Atmos
    48. Codec ID                       : A_TRUEHD
    49. Duration                       : 1 h 56 min
    50. Bit rate mode                  : Variable
    51. Bit rate                       : 4 432 kb/s
    52. Maximum bit rate               : 6 816 kb/s
    53. Channel(s)                     : 8 channels
    54. Channel layout                 : L R C LFE Ls Rs Lb Rb
    55. Sampling rate                  : 48.0 kHz
    56. Frame rate                     : 1 200.000 FPS (40 SPF)
    57. Compression mode               : Lossless
    58. Stream size                    : 3.61 GiB (13%)
    59. Title                          : 英语
    60. Language                       : English
    61. Default                        : Yes
    62. Forced                         : No
    63. Number of dynamic objects      : 11
    64. Bed channel count              : 1 channel
    65. Bed channel configuration      : LFE

    66. Audio #2
    67. ID                             : 3
    68. Format                         : DTS XLL
    69. Format/Info                    : Digital Theater Systems
    70. Commercial name                : DTS-HD Master Audio
    71. Codec ID                       : A_DTS
    72. Duration                       : 1 h 56 min
    73. Bit rate mode                  : Variable
    74. Bit rate                       : 2 787 kb/s
    75. Channel(s)                     : 8 channels
    76. Channel layout                 : C L R LFE Lb Rb Lss Rss
    77. Sampling rate                  : 48.0 kHz
    78. Frame rate                     : 93.750 FPS (512 SPF)
    79. Bit depth                      : 16 bits
    80. Compression mode               : Lossless
    81. Stream size                    : 2.27 GiB (8%)
    82. Title                          : 北影国语
    83. Language                       : Chinese
    84. Default                        : No
    85. Forced                         : No

    86. Text #1
    87. ID                             : 4
    88. Format                         : PGS
    89. Muxing mode                    : zlib
    90. Codec ID                       : S_HDMV/PGS
    91. Codec ID/Info                  : Picture based subtitle format used on BDs/HD-DVDs
    92. Duration                       : 1 h 48 min
    93. Bit rate                       : 29.4 kb/s
    94. Count of elements              : 2238
    95. Stream size                    : 22.8 MiB (0%)
    96. Title                          : 英文
    97. Language                       : English
    98. Default                        : Yes
    99. Forced                         : No

    100. Text #2
    101. ID                             : 5
    102. Format                         : PGS
    103. Muxing mode                    : zlib
    104. Codec ID                       : S_HDMV/PGS
    105. Codec ID/Info                  : Picture based subtitle format used on BDs/HD-DVDs
    106. Duration                       : 1 h 50 min
    107. Bit rate                       : 97.7 kb/s
    108. Count of elements              : 3350
    109. Stream size                    : 77.2 MiB (0%)
    110. Title                          : 国配简中
    111. Language                       : Chinese
    112. Default                        : No
    113. Forced                         : No

    114. Text #3
    115. ID                             : 6
    116. Format                         : PGS
    117. Muxing mode                    : zlib
    118. Codec ID                       : S_HDMV/PGS
    119. Codec ID/Info                  : Picture based subtitle format used on BDs/HD-DVDs
    120. Duration                       : 1 h 48 min
    121. Bit rate                       : 39.1 kb/s
    122. Count of elements              : 1486
    123. Stream size                    : 30.3 MiB (0%)
    124. Title                          : 简英双语
    125. Language                       : Chinese
    126. Default                        : No
    127. Forced                         : No

    128. Text #4
    129. ID                             : 7
    130. Format                         : PGS
    131. Muxing mode                    : zlib
    132. Codec ID                       : S_HDMV/PGS
    133. Codec ID/Info                  : Picture based subtitle format used on BDs/HD-DVDs
    134. Duration                       : 1 h 55 min
    135. Bit rate                       : 18.8 kb/s
    136. Count of elements              : 2246
    137. Stream size                    : 15.4 MiB (0%)
    138. Title                          : 原盘繁中
    139. Language                       : Chinese
    140. Default                        : No
    141. Forced                         : No

    142. Text #5
    143. ID                             : 8
    144. Format                         : PGS
    145. Muxing mode                    : zlib
    146. Codec ID                       : S_HDMV/PGS
    147. Codec ID/Info                  : Picture based subtitle format used on BDs/HD-DVDs
    148. Duration                       : 1 h 55 min
    149. Bit rate                       : 22.0 kb/s
    150. Count of elements              : 2208
    151. Stream size                    : 18.1 MiB (0%)
    152. Title                          : 原盘简中
    153. Language                       : Chinese
    154. Default                        : No
    155. Forced                         : No

    156. Text #6
    157. ID                             : 9
    158. Format                         : PGS
    159. Muxing mode                    : zlib
    160. Codec ID                       : S_HDMV/PGS
    161. Codec ID/Info                  : Picture based subtitle format used on BDs/HD-DVDs
    162. Duration                       : 1 h 55 min
    163. Bit rate                       : 17.6 kb/s
    164. Count of elements              : 2250
    165. Stream size                    : 14.5 MiB (0%)
    166. Title                          : 原盘繁粤
    167. Language                       : Chinese
    168. Default                        : No
    169. Forced                         : No

    170. Menu
    171. 00:00:00.000                   : en:第 01 章
    172. 00:04:16.005                   : en:第 02 章
    173. 00:08:18.247                   : en:第 03 章
    174. 00:13:17.379                   : en:第 04 章
    175. 00:19:19.867                   : en:第 05 章
    176. 00:25:29.319                   : en:第 06 章
    177. 00:29:45.241                   : en:第 07 章
    178. 00:34:32.570                   : en:第 08 章
    179. 00:38:47.033                   : en:第 09 章
    180. 00:43:53.255                   : en:第 10 章
    181. 00:49:03.732                   : en:第 11 章
    182. 00:55:17.105                   : en:第 12 章
    183. 00:59:21.015                   : en:第 13 章
    184. 01:04:44.171                   : en:第 14 章
    185. 01:10:37.233                   : en:第 15 章
    186. 01:15:53.298                   : en:第 16 章
    187. 01:20:28.990                   : en:第 17 章
    188. 01:24:47.999                   : en:第 18 章
    189. 01:29:03.963                   : en:第 19 章
    190. 01:33:59.884                   : en:第 20 章
    191. 01:36:59.605                   : en:第 21 章
    192. 01:41:07.561                   : en:第 22 章
    193. 01:45:27.404                   : en:第 23 章
    194. 01:49:42.033                   : en:第 24 章
    复制代码








    购买主题 已有 25 人购买  本主题需向作者支付 30 大洋 才能浏览
    郑重声明:
    本人提供的所有影视作品均是在网上搜集,任何涉及商业盈利目的均不得使用,否则产生的一切后果将由您自己承担!
    本人不对本人所发布的任何内容负任何法律责任!该下载内容仅做宽带测试使用,请在下载后24小时内删除。请购买正版!
    本人列出的文件没有保存在本站的服务器上,本人仅负责连接,本人对被传播文件的内容一无所知。
    如侵犯视频原作者或发行商版权,请联系本人删除!
    回复

    使用道具 举报

  • TA的每日心情
    开心
    昨天 16:36
  • 签到天数: 45 天

    [LV.5]常住居民I

    0

    主题

    434

    帖子

    98

    积分

    中级影迷

    Rank: 3Rank: 3

    积分
    98
    发表于 2021-3-17 14:33:08 | 显示全部楼层
    感谢分享感谢分享感谢分享
    回复

    使用道具 举报

  • TA的每日心情
    无聊
    昨天 17:03
  • 签到天数: 356 天

    [LV.8]以坛为家I

    2

    主题

    1882

    帖子

    122

    积分

    中级影迷

    Rank: 3Rank: 3

    积分
    122
    发表于 2021-3-17 14:53:22 | 显示全部楼层
    感谢分享好资源
    回复

    使用道具 举报

  • TA的每日心情

    昨天 10:45
  • 签到天数: 206 天

    [LV.7]常住居民III

    0

    主题

    1576

    帖子

    116

    积分

    中级影迷

    Rank: 3Rank: 3

    积分
    116
    发表于 2021-3-17 14:54:14 | 显示全部楼层
    感谢分享好资源
    回复

    使用道具 举报

  • TA的每日心情
    无聊
    半小时前
  • 签到天数: 1381 天

    [LV.10]以坛为家III

    63

    主题

    2321

    帖子

    1320

    积分

    资深影迷

    Rank: 10Rank: 10Rank: 10

    积分
    1320
    发表于 2021-3-17 15:05:10 | 显示全部楼层
    感谢分享经典好片
    回复

    使用道具 举报

  • TA的每日心情
    慵懒
    5 分钟前
  • 签到天数: 330 天

    [LV.8]以坛为家I

    6

    主题

    981

    帖子

    162

    积分

    高级影迷

    Rank: 4

    积分
    162
    发表于 2021-3-17 15:35:35 | 显示全部楼层

    感谢分享感谢分享
    回复

    使用道具 举报

  • TA的每日心情
    开心
    2020-12-17 13:37
  • 签到天数: 236 天

    [LV.7]常住居民III

    11

    主题

    2602

    帖子

    942

    积分

    ★★VIP6★★

    Rank: 22Rank: 22Rank: 22Rank: 22Rank: 22Rank: 22

    积分
    942

    小土豪勋章土豪勋章影迷男神十二生肖之猴天秤座勋章

    发表于 2021-3-17 16:41:53 | 显示全部楼层
    这个好看。
    1
    回复

    使用道具 举报

  • TA的每日心情
    难过
    昨天 14:23
  • 签到天数: 184 天

    [LV.7]常住居民III

    5

    主题

    1338

    帖子

    390

    积分

    超级影迷

    Rank: 6Rank: 6

    积分
    390
    发表于 2021-3-17 17:56:54 | 显示全部楼层
    卧槽这是我的童年阴影
    回复

    使用道具 举报

  • TA的每日心情
    奋斗
    2021-4-2 21:16
  • 签到天数: 31 天

    [LV.5]常住居民I

    0

    主题

    43

    帖子

    33

    积分

    初级影迷

    Rank: 2

    积分
    33
    发表于 2021-3-17 19:31:28 | 显示全部楼层
    有好兄弟能传个其他网盘吗,没有115啊
    回复

    使用道具 举报

  • TA的每日心情
    慵懒
    3 天前
  • 签到天数: 109 天

    [LV.6]常住居民II

    1

    主题

    1995

    帖子

    132

    积分

    中级影迷

    Rank: 3Rank: 3

    积分
    132
    发表于 2021-3-17 20:26:57 | 显示全部楼层
    感谢分享好资源
    回复

    使用道具 举报

    您需要登录后才可以回帖 登录 | 立即注册

    本版积分规则

    QQ|Archiver|手机版|小黑屋|影迷乐园

    GMT+8, 2021-4-15 08:08 , Processed in 0.080567 second(s), 28 queries .

    Powered by Discuz! X3.4

    Copyright © 2001-2020, Tencent Cloud.

    快速回复 返回顶部 返回列表