请选择 进入手机版 | 继续访问电脑版

YMLY-影迷乐园-特效字幕 蓝光原盘 1080P 高清动漫电影电视剧

 找回密码
 立即注册
搜索
查看: 545|回复: 38

[美国] [115][2020][猛禽小队和哈莉·奎茵][简中.中英特效字幕][23.95GB][MKV][Birds.of.Prey.2020.BluRay.2160p.x265.10bit.HDR.mUHD-FRDS]

[复制链接]
  • TA的每日心情
    奋斗
    2020-2-21 00:36
  • 签到天数: 656 天

    [LV.9]以坛为家II

    1万

    主题

    1万

    帖子

    9万

    积分

    超级版主

    与齐同行,是最初的梦想,也是一辈子的执着~

    Rank: 16Rank: 16Rank: 16Rank: 16

    积分
    93141

    内测勋章最佳新人十二生肖之猴VIP包月勋章影迷男神小土豪勋章土豪勋章富甲一方精华勋章金话筒主题达人灌水之王

    发表于 2021-3-18 15:53:08 | 显示全部楼层 |阅读模式
    下载说明:

    只能115会员离线下载,其它工具都下载不了,购买前请看清楚,一经出售,一概不退款!


    ----转载自FRDS,感谢压制和原发布人员,特此鸣谢!----


    制作说明:

    两种特效字幕来自asuka72@SSDForum,特此鸣谢!未经原作者许可禁止转载或者提取二发!






    ◎译  名 猛禽小队和哈莉·奎茵 / Birds of Prey / Birds of Prey (And the Fantabulous Emancipation of One Harley Quinn) / Harley Quinn: Birds of Prey / 哈莉·奎因:猛禽小队 / 猛禽小队 / 猛禽小队(以及一个哈莉·奎茵的奇妙解放) / 猛禽小队与哈莉·奎茵的奇妙解放 / 猛禽小队:小丑女大解放(台) / 猛禽暴队:解疯小丑女(港)
    ◎片  名 Birds of Prey: And the Fantabulous Emancipation of One Harley Quinn
    ◎年  代 2020
    ◎产  地 美国
    ◎类  别 动作 / 犯罪 / 冒险
    ◎语  言 英语
    ◎上映日期 2020-02-07(美国)
    ◎IMDb评分  6.1/10 from 169866 users
    ◎IMDb链接  https://www.imdb.com/title/tt7713068
    ◎豆瓣评分 5.8/10 from 69016 users
    ◎豆瓣链接 https://movie.douban.com/subject/30160393/
    ◎片  长 109分钟
    ◎导  演 阎羽茜 Cathy Yan
    ◎编  剧 克里斯蒂娜·霍德森 Christina Hodson / 查克·狄克逊 Chuck Dixon / 乔丹·B·戈芬克尔 Jordan B. Gorfinkel / 格雷格·兰德 Greg Land
    ◎主  演 玛格特·罗比 Margot Robbie
           玛丽·伊丽莎白·温斯特德 Mary Elizabeth Winstead
           罗茜·佩雷兹 Rosie Perez
           朱尼·斯莫利特 Jurnee Smollett
           伊万·麦克格雷格 Ewan McGregor
           埃拉·杰伊·巴斯科 Ella Jay Basco
           克里斯·梅西纳 Chris Messina
           黄阿丽 Ali Wong
           戴维·尤里 David Ury
           萨拉·蒙特斯 Sara Montez
           伊莎贝尔·帕克扎德 Isabel Pakzad
           丹尼尔·伯哈特 Daniel Bernhardt
           帕洛马·拉比诺夫 Paloma Rabinov
           德里克·威尔逊 Derek Wilson
           乔·布卡罗三世 Joe Bucaro III
           弗朗克西斯·周 François Chau
           布鲁诺·奥利弗 Bruno Oliver
           马修·维利希 Matthew Willig
           杰里米·丹茨林格 Jeremy Denzlinger
           迈克尔·马西尼 Michael Masini
           杰西·布什 Jesse Bush
           史蒂文·威廉姆斯 Steven Williams
           夏洛林·阿莫亚 Charlene Amoia
           罗伯特·卡特里尼 Robert Catrini
           埃迪·阿尔法诺 Eddie Alfano
           普拉莫德库马尔 Pramod Kumar
           K.K. 巴雷特 K.K. Barrett
           西蒙·瑞 Simon Rhee
           凯莱布·斯比尔亚兹 Caleb Spillyards
           萨拉·贝克 Sala Baker
           埃夫卡·科瓦拉西尤斯 Efka Kvaraciejus
           山姆·哈格雷夫 Sam Hargrave
           丹尼斯·基弗 Dennis Keiffer
           博亚娜·诺瓦科维奇 Bojana Novaković
           埃里克·迈克尔·科尔 Eric Michael Cole
           提姆·里格比 Tim Rigby
           大卫·安东尼·布廖内 David Anthony Buglione
           杰拉德·唐尼 Gerald Downey
           埃迪·J.费尔南德斯 Eddie J. Fernandez
           尼科·格莱瑟姆 Nico Greetham
           朱迪·凯恩 Judy Kain
           杰夫·里帕瑞 Jeff Lipary
           詹妮尔·麦基 Jenelle McKee
           伊戈·米基塔斯 Ego Mikitas
           安东尼·莫利纳利 Anthony Molinari
           迪索·拉莫斯 Diezel Ramos
           凯伦·特利哈 Karen Teliha
           多米尼克·培斯 Dominic Pace
           克里斯·卡内尔 Chris Carnel
           巴迪·沙士汉德 Buddy Sosthand
           帕努瓦特·安东尼·纳纳肯帕诺姆 Panuvat Anthony Nanakornpanom
           沙德·加斯帕德 Shad Gaspard
           奥克利·莱曼 Oakley Lehman


    ◎标  签 DC | 女性 | 犯罪 | 美国 | 超级英雄 | 动作 | 漫画改编 | 2020

    ◎简  介  

      你听过一个有关警察、歌手、神经病和黑手党公主的故事吗?《猛禽小队和哈莉·奎茵》是一个只有哈莉·奎茵本人才能讲出来的超乎寻常的奇妙传奇。哥谭市最为凶残自大的恶棍罗曼·赛恩尼斯和他狂热的手下萨斯为了寻找一个年轻女孩卡斯,将这座城市翻了个底朝天。哈莉、女猎手、黑金丝雀和蕾妮·蒙托亚不期而遇,看似违和的四人组不得不团结一致、携手作战,才有可能打败罗曼。

    ◎获奖情况  

      第25届金卫星奖(2021)
      电影部门 喜剧/音乐片最佳女主角(提名) 玛格特·罗比
      电影部门 最佳视觉效果(提名)

      第41届伦敦影评人协会奖(2021)
      技术成就奖(提名) 阿德鲁伊萨·李 / 黛博拉·拉·米亚·德内弗

      第33届芝加哥影评人协会奖(2020)
      最佳艺术指导(提名)
      最佳服装设计(提名)

      第6届豆瓣电影年度榜单(2019)
      最值得期待的外语电影(提名)










































    1. General
    2. Unique ID                      : 165042596859971118604443301314821137957 (0x7C2A0C45BE654FD130FE05472710A625)
    3. Format                         : Matroska
    4. Format version                 : Version 4
    5. File size                      : 24.0 GiB
    6. Duration                       : 1 h 48 min
    7. Overall bit rate mode          : Variable
    8. Overall bit rate               : 31.5 Mb/s
    9. Encoded date                   : UTC 2020-09-20 12:48:08
    10. Writing application            : mkvmerge v44.0.0 ('Domino') 64-bit
    11. Writing library                : libebml v1.3.10 + libmatroska v1.5.2

    12. Video
    13. ID                             : 1
    14. Format                         : HEVC
    15. Format/Info                    : High Efficiency Video Coding
    16. Format profile                 : Main 10@L5.1@High
    17. HDR format                     : SMPTE ST 2086, HDR10 compatible
    18. Codec ID                       : V_MPEGH/ISO/HEVC
    19. Duration                       : 1 h 48 min
    20. Bit rate                       : 27.6 Mb/s
    21. Width                          : 3 840 pixels
    22. Height                         : 1 608 pixels
    23. Display aspect ratio           : 2.40:1
    24. Frame rate mode                : Constant
    25. Frame rate                     : 23.976 (24000/1001) FPS
    26. Color space                    : YUV
    27. Chroma subsampling             : 4:2:0
    28. Bit depth                      : 10 bits
    29. Bits/(Pixel*Frame)             : 0.187
    30. Stream size                    : 21.0 GiB (88%)
    31. Writing library                : x265 3.2+7-gb291a1c95+26:[Windows][#Erg`Djh#][@Yuuki] made by @Dongfangbubai
    32. Encoding settings              : rc=crf / crf=18.0000 / qcomp=0.70 / qpstep=4 / stats-write=0 / stats-read=0 / vbv-maxrate=160000 / vbv-bufsize=160000 / vbv-init=0.9 / crf-max=0.0 / crf-min=0.0 / no-lossless / no-cu-lossless / aq-mode=3 / aq-strength=0.80 / cbqpoffs=-3 / crqpoffs=-3 / ipratio=1.40 / pbratio=1.30 / psy-rd=2.00 / psy-rdoq=3.00 / deblock=-1:-1 / ref=5 / limit-refs=0 / no-limit-modes / bframes=8 / b-adapt=2 / bframe-bias=0 / b-pyramid / b-intra / weightp / weightb / min-keyint=23 / max-keyint=240 / rc-lookahead=60 / gop-lookahead=0 / scenecut=40 / radl=0 / max-cu-size=32 / min-cu-size=8 / me=3 / subme=4 / merange=25 / rdoq-level=2 / rd=4 / rdpenalty=1 / dynamic-rd=0.00 / no-rd-refine / ----- / no-cutree / no-sao / no-rect / no-amp / no-open-gop / wpp / pmode / pme / no-psnr / no-ssim / nr-intra=0 / nr-inter=0 / no-constrained-intra / no-strong-intra-smoothing / max-tu-size=32 / tu-inter-depth=2 / tu-intra-depth=2 / limit-tu=0 / qg-size=32 / qpmax=69 / qpmin=0 / ----- / cpuid=1111039 / frame-threads=6 / numa-pools=54,- / log-level=2 / input-csp=1 / input-res=3840x1608 / interlace=0 / level-idc=0 / high-tier=1 / uhd-bd=0 / no-allow-non-conformance / no-repeat-headers / no-aud / hrd / info / hash=0 / no-temporal-layers / lookahead-slices=0 / no-splice / no-intra-refresh / no-ssim-rd / signhide / no-tskip / max-merge=3 / temporal-mvp / no-hme / no-analyze-src-pics / no-sao-non-deblock / selective-sao=0 / no-early-skip / no-rskip / no-fast-intra / no-tskip-fast / no-splitrd-skip / zone-count=0 / no-strict-cbr / no-rc-grain / no-const-vbv / sar=0 / overscan=0 / videoformat=5 / range=0 / colorprim=9 / transfer=16 / colormatrix=9 / chromaloc=0 / display-window=0 / master-display=G(13250,34500)B(7500,3000)R(34000,16000)WP(15635,16450)L(40000000,50) / cll=683,136 / min-luma=0 / max-luma=1023 / log2-max-poc-lsb=8 / vui-timing-info / vui-hrd-info / slices=1 / no-opt-qp-pps / no-opt-ref-list-length-pps / no-multi-pass-opt-rps / scenecut-bias=0.05 / no-opt-cu-delta-qp / no-aq-motion / hdr / hdr-opt / no-dhdr10-opt / no-idr-recovery-sei / analysis-reuse-level=5 / scale-factor=0 / refine-intra=0 / refine-inter=0 / refine-mv=1 / refine-ctu-distortion=0 / no-limit-sao / ctu-info=0 / no-lowpass-dct / refine-analysis-type=0 / copy-pic=1 / max-ausize-factor=1.0 / no-dynamic-refine / no-single-sei / no-hevc-aq / no-svt / no-field / qp-adaptation-range=1.00
    33. Default                        : Yes
    34. Forced                         : No
    35. Color range                    : Limited
    36. Color primaries                : BT.2020
    37. Transfer characteristics       : PQ
    38. Matrix coefficients            : BT.2020 non-constant
    39. Mastering display color primar : Display P3
    40. Mastering display luminance    : min: 0.0050 cd/m2, max: 4000 cd/m2
    41. Maximum Content Light Level    : 683 cd/m2
    42. Maximum Frame-Average Light Le : 136 cd/m2

    43. Audio
    44. ID                             : 2
    45. Format                         : MLP FBA 16-ch
    46. Format/Info                    : Meridian Lossless Packing FBA with 16-channel presentation
    47. Commercial name                : Dolby TrueHD with Dolby Atmos
    48. Codec ID                       : A_TRUEHD
    49. Duration                       : 1 h 48 min
    50. Bit rate mode                  : Variable
    51. Bit rate                       : 3 686 kb/s
    52. Maximum bit rate               : 6 912 kb/s
    53. Channel(s)                     : 8 channels
    54. Channel layout                 : L R C LFE Ls Rs Lb Rb
    55. Sampling rate                  : 48.0 kHz
    56. Frame rate                     : 1 200.000 FPS (40 SPF)
    57. Compression mode               : Lossless
    58. Stream size                    : 2.80 GiB (12%)
    59. Language                       : English
    60. Default                        : Yes
    61. Forced                         : Yes
    62. Number of dynamic objects      : 15
    63. Bed channel count              : 1 channel
    64. Bed channel configuration      : LFE

    65. Text #1
    66. ID                             : 3
    67. Format                         : PGS
    68. Muxing mode                    : zlib
    69. Codec ID                       : S_HDMV/PGS
    70. Codec ID/Info                  : Picture based subtitle format used on BDs/HD-DVDs
    71. Duration                       : 1 h 48 min
    72. Bit rate                       : 43.7 kb/s
    73. Count of elements              : 3876
    74. Stream size                    : 33.9 MiB (0%)
    75. Language                       : English
    76. Default                        : Yes
    77. Forced                         : No

    78. Text #2
    79. ID                             : 4
    80. Format                         : PGS
    81. Muxing mode                    : zlib
    82. Codec ID                       : S_HDMV/PGS
    83. Codec ID/Info                  : Picture based subtitle format used on BDs/HD-DVDs
    84. Duration                       : 1 h 48 min
    85. Bit rate                       : 68.3 kb/s
    86. Count of elements              : 4689
    87. Stream size                    : 53.1 MiB (0%)
    88. Title                          : 简中
    89. Language                       : Chinese
    90. Default                        : No
    91. Forced                         : No

    92. Text #3
    93. ID                             : 5
    94. Format                         : PGS
    95. Muxing mode                    : zlib
    96. Codec ID                       : S_HDMV/PGS
    97. Codec ID/Info                  : Picture based subtitle format used on BDs/HD-DVDs
    98. Duration                       : 1 h 48 min
    99. Bit rate                       : 105 kb/s
    100. Count of elements              : 4689
    101. Stream size                    : 81.7 MiB (0%)
    102. Title                          : 中英
    103. Language                       : Chinese
    104. Default                        : No
    105. Forced                         : No

    106. Menu
    107. 00:00:00.000                   : en:Chapter 01
    108. 00:08:08.446                   : en:Chapter 02
    109. 00:17:53.739                   : en:Chapter 03
    110. 00:27:11.838                   : en:Chapter 04
    111. 00:35:40.805                   : en:Chapter 05
    112. 00:44:48.268                   : en:Chapter 06
    113. 00:53:43.386                   : en:Chapter 07
    114. 01:01:15.296                   : en:Chapter 08
    115. 01:10:55.960                   : en:Chapter 09
    116. 01:19:06.158                   : en:Chapter 10
    117. 01:24:28.146                   : en:Chapter 11
    118. 01:34:27.620                   : en:Chapter 12
    119. 01:41:26.997                   : en:Chapter 13
    120. 01:48:53.109                   : en:Chapter 14
    复制代码

    购买主题 已有 21 人购买  本主题需向作者支付 30 大洋 才能浏览
    郑重声明:
    本人提供的所有影视作品均是在网上搜集,任何涉及商业盈利目的均不得使用,否则产生的一切后果将由您自己承担!
    本人不对本人所发布的任何内容负任何法律责任!该下载内容仅做宽带测试使用,请在下载后24小时内删除。请购买正版!
    本人列出的文件没有保存在本站的服务器上,本人仅负责连接,本人对被传播文件的内容一无所知。
    如侵犯视频原作者或发行商版权,请联系本人删除!
    回复

    使用道具 举报

  • TA的每日心情
    擦汗
    昨天 10:58
  • 签到天数: 171 天

    [LV.7]常住居民III

    3

    主题

    472

    帖子

    47

    积分

    初级影迷

    Rank: 2

    积分
    47
    发表于 2021-3-18 16:57:41 | 显示全部楼层
    趁这一波热度
    回复

    使用道具 举报

  • TA的每日心情
    开心
    昨天 09:51
  • 签到天数: 139 天

    [LV.7]常住居民III

    3

    主题

    300

    帖子

    239

    积分

    高级影迷

    Rank: 4

    积分
    239

    小土豪勋章

    发表于 2021-3-18 17:23:09 | 显示全部楼层
    挺不错的电影,下载欣赏一下
    回复

    使用道具 举报

  • TA的每日心情

    2019-10-24 00:15
  • 签到天数: 5 天

    [LV.2]偶尔看看I

    0

    主题

    1494

    帖子

    148

    积分

    中级影迷

    Rank: 3Rank: 3

    积分
    148
    发表于 2021-3-18 17:24:25 | 显示全部楼层
    感谢分享。  
    回复

    使用道具 举报

  • TA的每日心情
    开心
    前天 11:21
  • 签到天数: 39 天

    [LV.5]常住居民I

    0

    主题

    67

    帖子

    48

    积分

    初级影迷

    Rank: 2

    积分
    48
    QQ
    发表于 2021-3-18 17:54:54 | 显示全部楼层
    比较期待重启版
    回复

    使用道具 举报

    该用户从未签到

    3

    主题

    942

    帖子

    101

    积分

    中级影迷

    Rank: 3Rank: 3

    积分
    101
    发表于 2021-3-18 18:09:24 | 显示全部楼层
    66666666666666
    回复

    使用道具 举报

    该用户从未签到

    3

    主题

    942

    帖子

    101

    积分

    中级影迷

    Rank: 3Rank: 3

    积分
    101
    发表于 2021-3-18 18:09:24 | 显示全部楼层
    66666666666666
    回复

    使用道具 举报

  • TA的每日心情
    无聊
    昨天 17:03
  • 签到天数: 356 天

    [LV.8]以坛为家I

    2

    主题

    1882

    帖子

    122

    积分

    中级影迷

    Rank: 3Rank: 3

    积分
    122
    发表于 2021-3-18 18:15:55 | 显示全部楼层
    感谢分享好资源
    回复

    使用道具 举报

  • TA的每日心情
    开心
    昨天 00:00
  • 签到天数: 194 天

    [LV.7]常住居民III

    0

    主题

    763

    帖子

    83

    积分

    中级影迷

    Rank: 3Rank: 3

    积分
    83
    发表于 2021-3-18 18:31:18 | 显示全部楼层
    很不错的一部片
    回复

    使用道具 举报

  • TA的每日心情
    开心
    昨天 07:03
  • 签到天数: 268 天

    [LV.8]以坛为家I

    1

    主题

    3016

    帖子

    543

    积分

    专业影迷

    Rank: 8Rank: 8

    积分
    543
    发表于 2021-3-18 19:20:26 | 显示全部楼层
    谢谢楼主分享
    回复

    使用道具 举报

    您需要登录后才可以回帖 登录 | 立即注册

    本版积分规则

    QQ|Archiver|手机版|小黑屋|影迷乐园

    GMT+8, 2021-4-15 06:42 , Processed in 0.100126 second(s), 29 queries .

    Powered by Discuz! X3.4

    Copyright © 2001-2020, Tencent Cloud.

    快速回复 返回顶部 返回列表