请选择 进入手机版 | 继续访问电脑版

YMLY-影迷乐园-特效字幕 蓝光原盘 1080P 高清动漫电影电视剧

 找回密码
 立即注册
搜索
查看: 353|回复: 18

[加拿大] [115][1996][欲望号快车][简中.中英字幕][22.23GB][MKV][Crash.1996.BluRay.2160p.x265.10bit.HDR.mUHD-FRDS]

[复制链接]
  • TA的每日心情
    奋斗
    2020-2-21 00:36
  • 签到天数: 656 天

    [LV.9]以坛为家II

    1万

    主题

    1万

    帖子

    9万

    积分

    超级版主

    与齐同行,是最初的梦想,也是一辈子的执着~

    Rank: 16Rank: 16Rank: 16Rank: 16

    积分
    93142

    内测勋章最佳新人十二生肖之猴VIP包月勋章影迷男神小土豪勋章土豪勋章富甲一方精华勋章金话筒主题达人灌水之王

    发表于 2021-3-18 16:00:16 | 显示全部楼层 |阅读模式
    下载说明:

    只能115会员离线下载,其它工具都下载不了,购买前请看清楚,一经出售,一概不退款!


    ----转载自FRDS,感谢压制和原发布人员,特此鸣谢!----



    ◎译  名 欲望号快车 / 撞车 / 超速性追缉(台)
    ◎片  名 Crash
    ◎年  代 1996
    ◎产  地 加拿大
    ◎类  别 剧情
    ◎语  言 英语 / 瑞典语
    ◎上映日期 1996-05-17(戛纳电影节) / 1996-10-04(加拿大)
    ◎IMDb评分  6.4/10 from 51033 users
    ◎IMDb链接  https://www.imdb.com/title/tt0115964
    ◎豆瓣评分 6.9/10 from 9184 users
    ◎豆瓣链接 https://movie.douban.com/subject/1292682/
    ◎片  长 100分钟
    ◎导  演 大卫·柯南伯格 David Cronenberg
    ◎编  剧 J·G·巴拉德 J.G. Ballard / 大卫·柯南伯格 David Cronenberg
    ◎主  演 詹姆斯·斯派德 James Spader
           霍利·亨特 Holly Hunter
           伊莱亚斯·科泰斯 Elias Koteas
           黛博拉·卡拉·安格 Deborah Kara Unger
           罗姗娜·阿奎特 Rosanna Arquette
           彼得·麦克内尔 Peter MacNeill
           朱达·卡茨 Judah Katz
           妮基·瓜达尼 Nicky Guadagni
           博伊德·班克斯 Boyd Banks
           大卫·柯南伯格 David Cronenberg
           乔丹 Jordan


    ◎标  签 情色 | 加拿大 | 1996 | 剧情 | 英国 | 美国 | 惊悚 | 心理

    ◎简  介  

      电影制片人詹姆斯(James Spader 饰)沉迷于性事,在女友凯瑟琳之外尚有不少情人。一次开车回家的路上他与另一辆车相撞,詹姆斯腿部重伤,对面车中的夫妻两人则丈夫死亡妻子海伦(Holly Hunter 饰)负伤,詹姆斯在报废车场偶遇海伦,两人由此结识,不久海伦带他参观了由医生沃甘主持的撞车活动,这些爱好者热衷用真实的撞车还原某些事故,詹姆斯进入了一个匪夷所思的圈子。沃甘身份神秘,宣扬撞车是释放自我的有效途径,为此不惜以身犯险。随着詹姆斯与沃甘的交往不断加深,两人终于在车上发生了关系,而随后沃甘驾车撞击詹姆斯与凯瑟琳却致使自己死亡。詹姆斯大难不死后又驾驶者一辆废旧汽车撞向了凯瑟琳……本片获1996年加拿大吉尼奖导演奖等多项褒奖。

    ◎获奖情况  

      第49届戛纳电影节(1996)
      主竞赛单元 金棕榈奖(提名) 大卫·柯南伯格
      主竞赛单元 评审团特别奖 大卫·柯南伯格






    1. General
    2. Unique ID                      : 279959594166975091839277721260144953273 (0xD29E41AE13EF7D75A6E249189C1F87B9)
    3. Format                         : Matroska
    4. Format version                 : Version 4
    5. File size                      : 22.2 GiB
    6. Duration                       : 1 h 39 min
    7. Overall bit rate mode          : Variable
    8. Overall bit rate               : 31.9 Mb/s
    9. Encoded date                   : UTC 2020-09-19 13:03:55
    10. Writing application            : mkvmerge v44.0.0 ('Domino') 64-bit
    11. Writing library                : libebml v1.3.10 + libmatroska v1.5.2

    12. Video
    13. ID                             : 1
    14. Format                         : HEVC
    15. Format/Info                    : High Efficiency Video Coding
    16. Format profile                 : Main 10@L5.1@High
    17. HDR format                     : SMPTE ST 2086, HDR10 compatible
    18. Codec ID                       : V_MPEGH/ISO/HEVC
    19. Duration                       : 1 h 39 min
    20. Bit rate                       : 29.8 Mb/s
    21. Width                          : 3 840 pixels
    22. Height                         : 2 160 pixels
    23. Display aspect ratio           : 16:9
    24. Frame rate mode                : Constant
    25. Frame rate                     : 23.976 (24000/1001) FPS
    26. Color space                    : YUV
    27. Chroma subsampling             : 4:2:0
    28. Bit depth                      : 10 bits
    29. Bits/(Pixel*Frame)             : 0.150
    30. Stream size                    : 20.8 GiB (93%)
    31. Writing library                : x265 3.3+3-g8f8e332f1+29:[Windows][#Erg`Djh#][@Yuuki] made by @Dongfangbubai
    32. Encoding settings              : rc=crf / crf=20.0000 / qcomp=0.70 / qpstep=4 / stats-write=0 / stats-read=0 / vbv-maxrate=160000 / vbv-bufsize=160000 / vbv-init=0.9 / crf-max=0.0 / crf-min=0.0 / no-lossless / no-cu-lossless / aq-mode=3 / aq-strength=0.80 / cbqpoffs=-3 / crqpoffs=-3 / ipratio=1.40 / pbratio=1.30 / psy-rd=2.00 / psy-rdoq=3.00 / deblock=-1:-1 / ref=5 / limit-refs=0 / no-limit-modes / bframes=8 / b-adapt=2 / bframe-bias=0 / b-pyramid / b-intra / weightp / weightb / min-keyint=23 / max-keyint=240 / rc-lookahead=60 / gop-lookahead=0 / scenecut=40 / hist-scenecut=0 / radl=0 / max-cu-size=32 / min-cu-size=8 / me=3 / subme=4 / merange=25 / rdoq-level=2 / rd=4 / rdpenalty=1 / dynamic-rd=0.00 / no-rd-refine / ----- / no-cutree / no-sao / rect / no-amp / no-open-gop / wpp / pmode / pme / no-psnr / no-ssim / nr-intra=0 / nr-inter=0 / no-constrained-intra / no-strong-intra-smoothing / max-tu-size=32 / tu-inter-depth=2 / tu-intra-depth=2 / limit-tu=0 / qg-size=32 / qpmax=69 / qpmin=0 / ----- / cpuid=1176575 / frame-threads=6 / numa-pools=54,- / log-level=2 / input-csp=1 / input-res=3840x2160 / interlace=0 / level-idc=0 / high-tier=1 / uhd-bd=0 / no-allow-non-conformance / no-repeat-headers / no-aud / hrd / info / hash=0 / no-temporal-layers / lookahead-slices=0 / no-splice / no-intra-refresh / no-ssim-rd / signhide / no-tskip / max-merge=3 / temporal-mvp / no-frame-dup / no-hme / no-analyze-src-pics / no-sao-non-deblock / selective-sao=0 / no-early-skip / no-rskip / no-fast-intra / no-tskip-fast / no-splitrd-skip / zone-count=0 / no-strict-cbr / no-rc-grain / no-const-vbv / sar=0 / overscan=0 / videoformat=5 / range=0 / colorprim=9 / transfer=16 / colormatrix=9 / chromaloc=0 / display-window=0 / master-display=G(13250,34500)B(7500,3000)R(34000,16000)WP(15635,16450)L(10000000,1) / cll=1000,400 / min-luma=0 / max-luma=1023 / log2-max-poc-lsb=8 / vui-timing-info / vui-hrd-info / slices=1 / no-opt-qp-pps / no-opt-ref-list-length-pps / no-multi-pass-opt-rps / scenecut-bias=0.05 / hist-threshold=0.01 / no-opt-cu-delta-qp / no-aq-motion / hdr10 / hdr10-opt / no-dhdr10-opt / no-idr-recovery-sei / analysis-reuse-level=0 / analysis-save-reuse-level=0 / analysis-load-reuse-level=0 / scale-factor=0 / refine-intra=0 / refine-inter=0 / refine-mv=1 / refine-ctu-distortion=0 / no-limit-sao / ctu-info=0 / no-lowpass-dct / refine-analysis-type=0 / copy-pic=1 / max-ausize-factor=1.0 / no-dynamic-refine / no-single-sei / no-hevc-aq / no-svt / no-field / qp-adaptation-range=1.00 / no-scenecut-aware-qpconformance-window-offsets / right=0 / bottom=0
    33. Default                        : Yes
    34. Forced                         : No
    35. Color range                    : Limited
    36. Color primaries                : BT.2020
    37. Transfer characteristics       : PQ
    38. Matrix coefficients            : BT.2020 non-constant
    39. Mastering display color primar : Display P3
    40. Mastering display luminance    : min: 0.0001 cd/m2, max: 1000 cd/m2
    41. Maximum Content Light Level    : 1000 cd/m2
    42. Maximum Frame-Average Light Le : 400 cd/m2

    43. Audio
    44. ID                             : 2
    45. Format                         : DTS XLL
    46. Format/Info                    : Digital Theater Systems
    47. Commercial name                : DTS-HD Master Audio
    48. Codec ID                       : A_DTS
    49. Duration                       : 1 h 39 min
    50. Bit rate mode                  : Variable
    51. Bit rate                       : 2 090 kb/s
    52. Channel(s)                     : 6 channels
    53. Channel layout                 : C L R Ls Rs LFE
    54. Sampling rate                  : 48.0 kHz
    55. Frame rate                     : 93.750 FPS (512 SPF)
    56. Bit depth                      : 16 bits
    57. Compression mode               : Lossless
    58. Stream size                    : 1.46 GiB (7%)
    59. Language                       : English
    60. Default                        : Yes
    61. Forced                         : No

    62. Text #1
    63. ID                             : 3
    64. Format                         : PGS
    65. Muxing mode                    : zlib
    66. Codec ID                       : S_HDMV/PGS
    67. Codec ID/Info                  : Picture based subtitle format used on BDs/HD-DVDs
    68. Duration                       : 1 h 30 min
    69. Bit rate                       : 13.9 kb/s
    70. Count of elements              : 868
    71. Stream size                    : 8.98 MiB (0%)
    72. Language                       : English
    73. Default                        : Yes
    74. Forced                         : No

    75. Text #2
    76. ID                             : 4
    77. Format                         : PGS
    78. Muxing mode                    : zlib
    79. Codec ID                       : S_HDMV/PGS
    80. Codec ID/Info                  : Picture based subtitle format used on BDs/HD-DVDs
    81. Duration                       : 1 h 30 min
    82. Bit rate                       : 10.2 kb/s
    83. Count of elements              : 778
    84. Stream size                    : 6.57 MiB (0%)
    85. Title                          : 简中
    86. Language                       : Chinese
    87. Default                        : No
    88. Forced                         : No

    89. Text #3
    90. ID                             : 5
    91. Format                         : PGS
    92. Muxing mode                    : zlib
    93. Codec ID                       : S_HDMV/PGS
    94. Codec ID/Info                  : Picture based subtitle format used on BDs/HD-DVDs
    95. Duration                       : 1 h 30 min
    96. Bit rate                       : 18.7 kb/s
    97. Count of elements              : 897
    98. Stream size                    : 12.1 MiB (0%)
    99. Title                          : 双语
    100. Language                       : Chinese
    101. Default                        : No
    102. Forced                         : No

    103. Menu
    104. 00:00:00.000                   : en:第 01 章
    105. 00:02:47.167                   : en:第 02 章
    106. 00:06:46.406                   : en:第 03 章
    107. 00:10:59.659                   : en:第 04 章
    108. 00:16:07.967                   : en:第 05 章
    109. 00:20:09.208                   : en:第 06 章
    110. 00:25:23.313                   : en:第 07 章
    111. 00:33:53.031                   : en:第 08 章
    112. 00:36:54.212                   : en:第 09 章
    113. 00:40:40.438                   : en:第 10 章
    114. 00:50:50.047                   : en:第 11 章
    115. 00:58:03.480                   : en:第 12 章
    116. 01:04:38.875                   : en:第 13 章
    117. 01:11:25.281                   : en:第 14 章
    118. 01:17:03.619                   : en:第 15 章
    119. 01:24:38.073                   : en:第 16 章
    120. 01:30:27.422                   : en:第 17 章
    121. 01:36:13.768                   : en:第 18 章
    复制代码

    购买主题 已有 6 人购买  本主题需向作者支付 20 大洋 才能浏览
    郑重声明:
    本人提供的所有影视作品均是在网上搜集,任何涉及商业盈利目的均不得使用,否则产生的一切后果将由您自己承担!
    本人不对本人所发布的任何内容负任何法律责任!该下载内容仅做宽带测试使用,请在下载后24小时内删除。请购买正版!
    本人列出的文件没有保存在本站的服务器上,本人仅负责连接,本人对被传播文件的内容一无所知。
    如侵犯视频原作者或发行商版权,请联系本人删除!
    回复

    使用道具 举报

  • TA的每日心情
    开心
    昨天 09:51
  • 签到天数: 139 天

    [LV.7]常住居民III

    3

    主题

    300

    帖子

    239

    积分

    高级影迷

    Rank: 4

    积分
    239

    小土豪勋章

    发表于 2021-3-18 17:23:44 | 显示全部楼层
    下载收藏一下
    回复

    使用道具 举报

  • TA的每日心情
    慵懒
    昨天 08:28
  • 签到天数: 295 天

    [LV.8]以坛为家I

    6

    主题

    1537

    帖子

    210

    积分

    高级影迷

    Rank: 4

    积分
    210
    发表于 2021-3-18 18:33:35 | 显示全部楼层
    感谢分享!
    回复

    使用道具 举报

  • TA的每日心情
    开心
    昨天 00:00
  • 签到天数: 194 天

    [LV.7]常住居民III

    0

    主题

    763

    帖子

    83

    积分

    中级影迷

    Rank: 3Rank: 3

    积分
    83
    发表于 2021-3-18 19:07:40 | 显示全部楼层
    很不错的片子,多谢啦
    回复

    使用道具 举报

  • TA的每日心情
    开心
    昨天 07:03
  • 签到天数: 268 天

    [LV.8]以坛为家I

    1

    主题

    3016

    帖子

    543

    积分

    专业影迷

    Rank: 8Rank: 8

    积分
    543
    发表于 2021-3-18 19:21:16 | 显示全部楼层
    谢谢楼主分享
    回复

    使用道具 举报

  • TA的每日心情
    奋斗
    昨天 13:42
  • 签到天数: 107 天

    [LV.6]常住居民II

    0

    主题

    179

    帖子

    134

    积分

    中级影迷

    Rank: 3Rank: 3

    积分
    134
    发表于 2021-3-18 23:16:43 | 显示全部楼层
    感谢楼主分享
    回复

    使用道具 举报

  • TA的每日心情
    开心
    2 小时前
  • 签到天数: 55 天

    [LV.5]常住居民I

    2

    主题

    674

    帖子

    88

    积分

    中级影迷

    Rank: 3Rank: 3

    积分
    88
    发表于 2021-3-19 07:09:45 | 显示全部楼层
    支持高清,感谢分享
    回复

    使用道具 举报

  • TA的每日心情
    开心
    2020-12-17 13:37
  • 签到天数: 236 天

    [LV.7]常住居民III

    11

    主题

    2602

    帖子

    942

    积分

    ★★VIP6★★

    Rank: 22Rank: 22Rank: 22Rank: 22Rank: 22Rank: 22

    积分
    942

    小土豪勋章土豪勋章影迷男神十二生肖之猴天秤座勋章

    发表于 2021-3-19 08:55:20 | 显示全部楼层
    感谢大神。
    回复

    使用道具 举报

  • TA的每日心情
    擦汗
    昨天 09:03
  • 签到天数: 37 天

    [LV.5]常住居民I

    0

    主题

    400

    帖子

    93

    积分

    中级影迷

    Rank: 3Rank: 3

    积分
    93
    发表于 2021-3-19 10:11:51 | 显示全部楼层
    感谢分享,先下了看看~~~
    回复

    使用道具 举报

  • TA的每日心情
    无聊
    昨天 17:03
  • 签到天数: 356 天

    [LV.8]以坛为家I

    2

    主题

    1882

    帖子

    122

    积分

    中级影迷

    Rank: 3Rank: 3

    积分
    122
    发表于 2021-3-19 10:44:29 | 显示全部楼层
    封面很诡异
    回复

    使用道具 举报

    您需要登录后才可以回帖 登录 | 立即注册

    本版积分规则

    QQ|Archiver|手机版|小黑屋|影迷乐园

    GMT+8, 2021-4-15 07:10 , Processed in 0.066444 second(s), 28 queries .

    Powered by Discuz! X3.4

    Copyright © 2001-2020, Tencent Cloud.

    快速回复 返回顶部 返回列表