请选择 进入手机版 | 继续访问电脑版

YMLY-影迷乐园-特效字幕 蓝光原盘 1080P 高清动漫电影电视剧

 找回密码
 立即注册
搜索
查看: 299|回复: 17

[意大利] [115][1982][纽约杀人狂][简.英字幕][17.16GB][MKV][The.New.York.Ripper.1982.BluRay.2160p.x265.10bit.HDR.mUHD-FRDS]

[复制链接]
  • TA的每日心情
    奋斗
    2020-2-21 00:36
  • 签到天数: 656 天

    [LV.9]以坛为家II

    1万

    主题

    1万

    帖子

    9万

    积分

    超级版主

    与齐同行,是最初的梦想,也是一辈子的执着~

    Rank: 16Rank: 16Rank: 16Rank: 16

    积分
    93142

    内测勋章最佳新人十二生肖之猴VIP包月勋章影迷男神小土豪勋章土豪勋章富甲一方精华勋章金话筒主题达人灌水之王

    发表于 2021-3-18 16:18:02 | 显示全部楼层 |阅读模式
    下载说明:

    只能115会员离线下载,其它工具都下载不了,购买前请看清楚,一经出售,一概不退款!


    ----转载自FRDS,感谢压制和原发布人员,特此鸣谢!----



    ◎译  名 纽约杀人狂 / New York Ripper / 纽约开膛手
    ◎片  名 Lo squartatore di New York
    ◎年  代 1982
    ◎产  地 意大利
    ◎类  别 悬疑 / 惊悚 / 恐怖 / 犯罪
    ◎语  言 意大利语
    ◎上映日期 1982-03-04
    ◎IMDb评分  6.4/10 from 8926 users
    ◎IMDb链接  https://www.imdb.com/title/tt0084719
    ◎豆瓣评分 6.4/10 from 488 users
    ◎豆瓣链接 https://movie.douban.com/subject/1438878/
    ◎片  长 91 分钟
    ◎导  演 Lucio Fulci
    ◎编  剧 Lucio Fulci / Gianfranco Clerici
    ◎主  演 Jack Hedley
           Almanta Suska
           Howard Ross
           Andrea Occhipinti
           Alexandra Delli Colli
           Paolo Malco
           Cinzia de Ponti
           Cosimo Cinieri
           Daniela Doria


    ◎标  签 意大利 | 恐怖 | 惊悚 | 悬疑 | 犯罪 | 意大利电影 | 邪典 | Lucio_Fulci

    ◎简  介  

      不夜城纽约,光怪陆离,夜夜笙歌,人们陶醉在美酒佳人的梦幻世界中,早已忘却躲在黑暗处的隐隐杀机。
      某晚,一名妓女被人残忍杀害,警官弗瑞德•威廉姆(Jack Hedley 杰克•海德雷 饰)负责调查此案,在问询女房东(Babette New 贝比特•纽 饰)时,得知死者在前一晚上曾和一名有着公鸭嗓的神秘男子交谈。不久后,被害者不断增加,且都是年轻女性,死状恐怖。威廉姆认定这是一起疯狂的连环杀人案。未免引起混乱,警方严密封锁消息,威廉姆只能单枪匹马追寻真正的凶手……





    1. General
    2. Unique ID                      : 233207040088671440015817029442373590513 (0xAF720ACBF8E1B921374CD39924929DF1)
    3. Format                         : Matroska
    4. Format version                 : Version 4
    5. File size                      : 17.2 GiB
    6. Duration                       : 1 h 33 min
    7. Overall bit rate mode          : Variable
    8. Overall bit rate               : 26.4 Mb/s
    9. Encoded date                   : UTC 2020-09-17 22:25:45
    10. Writing application            : mkvmerge v44.0.0 ('Domino') 64-bit
    11. Writing library                : libebml v1.3.10 + libmatroska v1.5.2

    12. Video
    13. ID                             : 1
    14. Format                         : HEVC
    15. Format/Info                    : High Efficiency Video Coding
    16. Format profile                 : Main 10@L5.1@High
    17. HDR format                     : SMPTE ST 2086, HDR10 compatible
    18. Codec ID                       : V_MPEGH/ISO/HEVC
    19. Duration                       : 1 h 33 min
    20. Bit rate                       : 22.7 Mb/s
    21. Width                          : 3 840 pixels
    22. Height                         : 1 600 pixels
    23. Display aspect ratio           : 2.40:1
    24. Frame rate mode                : Constant
    25. Frame rate                     : 23.976 (24000/1001) FPS
    26. Color space                    : YUV
    27. Chroma subsampling             : 4:2:0
    28. Bit depth                      : 10 bits
    29. Bits/(Pixel*Frame)             : 0.154
    30. Stream size                    : 14.8 GiB (86%)
    31. Writing library                : x265 3.3+3-g8f8e332f1+29:[Windows][#Erg`Djh#][@Yuuki] made by @Dongfangbubai
    32. Encoding settings              : rc=crf / crf=20.0000 / qcomp=0.70 / qpstep=4 / stats-write=0 / stats-read=0 / vbv-maxrate=160000 / vbv-bufsize=160000 / vbv-init=0.9 / crf-max=0.0 / crf-min=0.0 / no-lossless / no-cu-lossless / aq-mode=3 / aq-strength=0.80 / cbqpoffs=-3 / crqpoffs=-3 / ipratio=1.40 / pbratio=1.30 / psy-rd=2.00 / psy-rdoq=3.00 / deblock=-1:-1 / ref=5 / limit-refs=0 / no-limit-modes / bframes=8 / b-adapt=2 / bframe-bias=0 / b-pyramid / b-intra / weightp / weightb / min-keyint=23 / max-keyint=240 / rc-lookahead=60 / gop-lookahead=0 / scenecut=40 / hist-scenecut=0 / radl=0 / max-cu-size=32 / min-cu-size=8 / me=3 / subme=4 / merange=25 / rdoq-level=2 / rd=4 / rdpenalty=1 / dynamic-rd=0.00 / no-rd-refine / ----- / no-cutree / no-sao / no-rect / no-amp / no-open-gop / wpp / pmode / pme / no-psnr / no-ssim / nr-intra=0 / nr-inter=0 / no-constrained-intra / no-strong-intra-smoothing / max-tu-size=32 / tu-inter-depth=2 / tu-intra-depth=2 / limit-tu=0 / qg-size=32 / qpmax=69 / qpmin=0 / ----- / cpuid=1176575 / frame-threads=6 / numa-pools=54,- / log-level=2 / input-csp=1 / input-res=3840x1600 / interlace=0 / level-idc=0 / high-tier=1 / uhd-bd=0 / no-allow-non-conformance / no-repeat-headers / no-aud / hrd / info / hash=0 / no-temporal-layers / lookahead-slices=0 / no-splice / no-intra-refresh / no-ssim-rd / signhide / no-tskip / max-merge=3 / temporal-mvp / no-frame-dup / no-hme / no-analyze-src-pics / no-sao-non-deblock / selective-sao=0 / no-early-skip / no-rskip / no-fast-intra / no-tskip-fast / no-splitrd-skip / zone-count=0 / no-strict-cbr / no-rc-grain / no-const-vbv / sar=0 / overscan=0 / videoformat=5 / range=0 / colorprim=9 / transfer=16 / colormatrix=9 / chromaloc=0 / display-window=0 / master-display=G(13250,34500)B(7500,3000)R(34000,16000)WP(15635,16450)L(10000000,1) / cll=0,0 / min-luma=0 / max-luma=1023 / log2-max-poc-lsb=8 / vui-timing-info / vui-hrd-info / slices=1 / no-opt-qp-pps / no-opt-ref-list-length-pps / no-multi-pass-opt-rps / scenecut-bias=0.05 / hist-threshold=0.01 / no-opt-cu-delta-qp / no-aq-motion / hdr10 / hdr10-opt / no-dhdr10-opt / no-idr-recovery-sei / analysis-reuse-level=0 / analysis-save-reuse-level=0 / analysis-load-reuse-level=0 / scale-factor=0 / refine-intra=0 / refine-inter=0 / refine-mv=1 / refine-ctu-distortion=0 / no-limit-sao / ctu-info=0 / no-lowpass-dct / refine-analysis-type=0 / copy-pic=1 / max-ausize-factor=1.0 / no-dynamic-refine / no-single-sei / no-hevc-aq / no-svt / no-field / qp-adaptation-range=1.00 / no-scenecut-aware-qpconformance-window-offsets / right=0 / bottom=0
    33. Default                        : Yes
    34. Forced                         : No
    35. Color range                    : Limited
    36. Color primaries                : BT.2020
    37. Transfer characteristics       : PQ
    38. Matrix coefficients            : BT.2020 non-constant
    39. Mastering display color primar : Display P3
    40. Mastering display luminance    : min: 0.0001 cd/m2, max: 1000 cd/m2

    41. Audio
    42. ID                             : 2
    43. Format                         : MLP FBA 16-ch
    44. Format/Info                    : Meridian Lossless Packing FBA with 16-channel presentation
    45. Commercial name                : Dolby TrueHD with Dolby Atmos
    46. Codec ID                       : A_TRUEHD
    47. Duration                       : 1 h 33 min
    48. Bit rate mode                  : Variable
    49. Bit rate                       : 3 570 kb/s
    50. Maximum bit rate               : 6 348 kb/s
    51. Channel(s)                     : 8 channels
    52. Channel layout                 : L R C LFE Ls Rs Lb Rb
    53. Sampling rate                  : 48.0 kHz
    54. Frame rate                     : 1 200.000 FPS (40 SPF)
    55. Compression mode               : Lossless
    56. Stream size                    : 2.32 GiB (14%)
    57. Language                       : English
    58. Default                        : Yes
    59. Forced                         : No
    60. Number of dynamic objects      : 11
    61. Bed channel count              : 1 channel
    62. Bed channel configuration      : LFE

    63. Text #1
    64. ID                             : 3
    65. Format                         : PGS
    66. Muxing mode                    : zlib
    67. Codec ID                       : S_HDMV/PGS
    68. Codec ID/Info                  : Picture based subtitle format used on BDs/HD-DVDs
    69. Duration                       : 1 h 31 min
    70. Bit rate                       : 56.9 kb/s
    71. Count of elements              : 2138
    72. Stream size                    : 37.1 MiB (0%)
    73. Language                       : English
    74. Default                        : Yes
    75. Forced                         : No

    76. Text #2
    77. ID                             : 4
    78. Format                         : PGS
    79. Muxing mode                    : zlib
    80. Codec ID                       : S_HDMV/PGS
    81. Codec ID/Info                  : Picture based subtitle format used on BDs/HD-DVDs
    82. Duration                       : 1 h 30 min
    83. Bit rate                       : 19.8 kb/s
    84. Count of elements              : 1573
    85. Stream size                    : 12.8 MiB (0%)
    86. Language                       : Chinese
    87. Default                        : No
    88. Forced                         : No

    89. Menu
    90. 00:00:00.000                   : en:Chapter 01
    91. 00:05:31.205                   : en:Chapter 02
    92. 00:11:43.661                   : en:Chapter 03
    93. 00:18:19.848                   : en:Chapter 04
    94. 00:25:16.515                   : en:Chapter 05
    95. 00:30:57.856                   : en:Chapter 06
    96. 00:35:21.994                   : en:Chapter 07
    97. 00:40:38.436                   : en:Chapter 08
    98. 00:44:51.146                   : en:Chapter 09
    99. 00:49:22.626                   : en:Chapter 10
    100. 00:54:02.614                   : en:Chapter 11
    101. 01:02:29.746                   : en:Chapter 12
    102. 01:10:16.921                   : en:Chapter 13
    103. 01:19:47.783                   : en:Chapter 14
    104. 01:26:09.164                   : en:Chapter 15
    105. 01:31:41.412                   : en:Chapter 16
    复制代码

    购买主题 已有 5 人购买  本主题需向作者支付 10 大洋 才能浏览
    郑重声明:
    本人提供的所有影视作品均是在网上搜集,任何涉及商业盈利目的均不得使用,否则产生的一切后果将由您自己承担!
    本人不对本人所发布的任何内容负任何法律责任!该下载内容仅做宽带测试使用,请在下载后24小时内删除。请购买正版!
    本人列出的文件没有保存在本站的服务器上,本人仅负责连接,本人对被传播文件的内容一无所知。
    如侵犯视频原作者或发行商版权,请联系本人删除!
    回复

    使用道具 举报

  • TA的每日心情
    开心
    昨天 09:51
  • 签到天数: 139 天

    [LV.7]常住居民III

    3

    主题

    300

    帖子

    239

    积分

    高级影迷

    Rank: 4

    积分
    239

    小土豪勋章

    发表于 2021-3-18 17:24:25 | 显示全部楼层
    下载收藏了  希望不错
    回复

    使用道具 举报

    该用户从未签到

    3

    主题

    942

    帖子

    101

    积分

    中级影迷

    Rank: 3Rank: 3

    积分
    101
    发表于 2021-3-18 18:10:37 | 显示全部楼层
    666666666666666
    回复

    使用道具 举报

  • TA的每日心情
    慵懒
    昨天 08:28
  • 签到天数: 295 天

    [LV.8]以坛为家I

    6

    主题

    1537

    帖子

    210

    积分

    高级影迷

    Rank: 4

    积分
    210
    发表于 2021-3-18 18:32:00 | 显示全部楼层
    谢谢分享!
    回复

    使用道具 举报

  • TA的每日心情
    开心
    昨天 00:00
  • 签到天数: 194 天

    [LV.7]常住居民III

    0

    主题

    763

    帖子

    83

    积分

    中级影迷

    Rank: 3Rank: 3

    积分
    83
    发表于 2021-3-18 18:44:10 | 显示全部楼层
    很不错的惊悚片,多谢啦
    回复

    使用道具 举报

  • TA的每日心情
    开心
    昨天 07:03
  • 签到天数: 268 天

    [LV.8]以坛为家I

    1

    主题

    3016

    帖子

    543

    积分

    专业影迷

    Rank: 8Rank: 8

    积分
    543
    发表于 2021-3-18 19:21:53 | 显示全部楼层
    谢谢楼主分享
    回复

    使用道具 举报

  • TA的每日心情
    奋斗
    昨天 13:42
  • 签到天数: 107 天

    [LV.6]常住居民II

    0

    主题

    179

    帖子

    134

    积分

    中级影迷

    Rank: 3Rank: 3

    积分
    134
    发表于 2021-3-18 23:19:09 | 显示全部楼层
    感谢楼主分享
    回复

    使用道具 举报

  • TA的每日心情
    无聊
    7 小时前
  • 签到天数: 331 天

    [LV.8]以坛为家I

    11

    主题

    818

    帖子

    138

    积分

    中级影迷

    Rank: 3Rank: 3

    积分
    138
    发表于 2021-3-19 00:54:03 | 显示全部楼层
    意大利女郎很耐看
    回复

    使用道具 举报

  • TA的每日心情
    开心
    2 小时前
  • 签到天数: 55 天

    [LV.5]常住居民I

    2

    主题

    674

    帖子

    88

    积分

    中级影迷

    Rank: 3Rank: 3

    积分
    88
    发表于 2021-3-19 07:09:01 | 显示全部楼层
    支持高清,感谢分享
    回复

    使用道具 举报

  • TA的每日心情
    开心
    昨天 08:48
  • 签到天数: 44 天

    [LV.5]常住居民I

    0

    主题

    321

    帖子

    39

    积分

    初级影迷

    Rank: 2

    积分
    39
    发表于 2021-3-19 08:43:52 | 显示全部楼层
    收藏~~~~~~~~~~~~~~~~~~~~
    回复

    使用道具 举报

    您需要登录后才可以回帖 登录 | 立即注册

    本版积分规则

    QQ|Archiver|手机版|小黑屋|影迷乐园

    GMT+8, 2021-4-15 07:32 , Processed in 0.070575 second(s), 28 queries .

    Powered by Discuz! X3.4

    Copyright © 2001-2020, Tencent Cloud.

    快速回复 返回顶部 返回列表