请选择 进入手机版 | 继续访问电脑版

YMLY-影迷乐园-特效字幕 蓝光原盘 1080P 高清动漫电影电视剧

 找回密码
 立即注册
搜索
查看: 2255|回复: 194

[WEB-DL] [115+百度][2021][1080P][扎克·施奈德版正义联盟.导演剪辑版][英语.外挂简中字幕][15.21GB][MKV][Zack.Snyders.Justice.League.2021.1080p.HMAX.WEB-DL.DDP5.1.Atmos.H.264-EVO]

  [复制链接]
  • TA的每日心情
    奋斗
    2020-2-21 00:36
  • 签到天数: 656 天

    [LV.9]以坛为家II

    1万

    主题

    1万

    帖子

    9万

    积分

    超级版主

    与齐同行,是最初的梦想,也是一辈子的执着~

    Rank: 16Rank: 16Rank: 16Rank: 16

    积分
    93141

    内测勋章最佳新人十二生肖之猴VIP包月勋章影迷男神小土豪勋章土豪勋章富甲一方精华勋章金话筒主题达人灌水之王

    发表于 2021-3-18 19:11:19 | 显示全部楼层 |阅读模式
    片源来源网络,字幕取自字幕库,在此感谢,如果百度云链接失效请私信本人补发~



    ◎译  名 扎克·施奈德版正义联盟 / Justice League Snyder Cut / 查克·史奈德之正义联盟(台) / 正义联盟 扎克·施奈德导演剪辑版 / 正义联盟导演剪辑版
    ◎片  名 Zack Snyder's Justice League
    ◎年  代 2021
    ◎产  地 美国
    ◎类  别 动作 / 科幻 / 奇幻 / 冒险
    ◎语  言 英语
    ◎上映日期 2021-03-18(美国)
    ◎IMDb链接  https://www.imdb.com/title/tt12361974
    ◎豆瓣评分 0/10 from 0 users
    ◎豆瓣链接 https://movie.douban.com/subject/35076714/
    ◎片  长 242分钟
    ◎导  演 扎克·施奈德 Zack Snyder
    ◎编  剧 克里斯·特里奥 Chris Terrio / 扎克·施奈德 Zack Snyder / 威尔·比尔 Will Beall / 杰里·西格尔 Jerry Siegel / 乔·舒斯特 Joe Shuster
    ◎主  演 本·阿弗莱克 Ben Affleck
           亨利·卡维尔 Henry Cavill
           盖尔·加朵 Gal Gadot
           杰森·莫玛 Jason Momoa
           埃兹拉·米勒 Ezra Miller
           雷·费舍尔 Ray Fisher
           杰瑞德·莱托 Jared Leto
           艾梅柏·希尔德 Amber Heard
           艾米·亚当斯 Amy Adams
           罗宾·怀特 Robin Wright
           康妮·尼尔森 Connie Nielsen
           戴安·琳恩 Diane Lane
           乔·曼根尼罗 Joe Manganiello
           塞伦·希德 Ciarán Hinds
           J·K·西蒙斯 J.K. Simmons
           威廉·达福 Willem Dafoe
           杰西·艾森伯格 Jesse Eisenberg
           杰瑞米·艾恩斯 Jeremy Irons
           科雷西·克莱门斯 Kiersey Clemons
           雷·波特 Ray Porter
           哈里·伦尼克斯 Harry Lennix
           萨曼塔·若 Samantha Jo
           乔·莫顿 Joe Morton
           彼得·吉尼斯 Peter Guinness
           斯沃里·拉格纳内 Swaylee Loughnane
           吉安皮罗·科格诺利 Gianpiero Cognoli
           安德鲁·G·奥格尔比 Andrew G. Ogleby
           山姆·威克斯 Sam Weeks


    ◎标  签 DC | 扎克施奈德 | 正义联盟 | 导演剪辑版 | 科幻 | 2021 | 漫画改编 | 黑超

    ◎简  介  

      为了确保超人没有白白牺牲,蝙蝠侠和神奇女侠计划招募一支超人类团队来保护世界,这项任务比布鲁斯设想要困难得多,因为每个新人都必须面对并跨越自己过去的心魔,团结起来,最终形成前所未有的联盟。只是一切可能为时已晚,无法从荒原狼、狄萨德和达克赛德的计划中拯救地球……

    1. General
    2. Unique ID                      : 101752695474514038865181360453938722628 (0x4C8CDB375F0A35AC5C456E4D6FF63744)
    3. Format                         : Matroska
    4. Format version                 : Version 4
    5. File size                      : 15.2 GiB
    6. Duration                       : 4 h 2 min
    7. Overall bit rate mode          : Variable
    8. Overall bit rate               : 8 992 kb/s
    9. Encoded date                   : UTC 2021-03-18 07:03:41
    10. Writing application            : mkvmerge v19.0.0 ('Brave Captain') 64-bit
    11. Writing library                : libebml v1.3.5 + libmatroska v1.4.8

    12. Video
    13. ID                             : 1
    14. Format                         : AVC
    15. Format/Info                    : Advanced Video Codec
    16. Format profile                 : High@L4
    17. Format settings                : CABAC / 4 Ref Frames
    18. Format settings, CABAC         : Yes
    19. Format settings, Reference fra : 4 frames
    20. Codec ID                       : V_MPEG4/ISO/AVC
    21. Duration                       : 4 h 2 min
    22. Bit rate mode                  : Variable
    23. Bit rate                       : 8 223 kb/s
    24. Maximum bit rate               : 12.4 Mb/s
    25. Width                          : 1 920 pixels
    26. Height                         : 1 080 pixels
    27. Display aspect ratio           : 16:9
    28. Frame rate mode                : Constant
    29. Frame rate                     : 23.976 (24000/1001) FPS
    30. Color space                    : YUV
    31. Chroma subsampling             : 4:2:0
    32. Bit depth                      : 8 bits
    33. Scan type                      : Progressive
    34. Bits/(Pixel*Frame)             : 0.165
    35. Stream size                    : 13.9 GiB (91%)
    36. Default                        : Yes
    37. Forced                         : No
    38. Color range                    : Limited
    39. Color primaries                : BT.709
    40. Transfer characteristics       : BT.709
    41. Matrix coefficients            : BT.709

    42. Audio
    43. ID                             : 2
    44. Format                         : E-AC-3 JOC
    45. Format/Info                    : Enhanced AC-3 with Joint Object Coding
    46. Commercial name                : Dolby Digital Plus with Dolby Atmos
    47. Codec ID                       : A_EAC3
    48. Duration                       : 4 h 2 min
    49. Bit rate mode                  : Constant
    50. Bit rate                       : 768 kb/s
    51. Channel(s)                     : 6 channels
    52. Channel layout                 : L R C LFE Ls Rs
    53. Sampling rate                  : 48.0 kHz
    54. Frame rate                     : 31.250 FPS (1536 SPF)
    55. Compression mode               : Lossy
    56. Stream size                    : 1.30 GiB (9%)
    57. Title                          : English
    58. Language                       : English
    59. Service kind                   : Complete Main
    60. Default                        : Yes
    61. Forced                         : No
    62. Complexity index               : 16
    63. Number of dynamic objects      : 15
    64. Bed channel count              : 1 channel
    65. Bed channel configuration      : LFE
    复制代码







    购买主题 已有 143 人购买  本主题需向作者支付 10 大洋 才能浏览
    郑重声明:
    本人提供的所有影视作品均是在网上搜集,任何涉及商业盈利目的均不得使用,否则产生的一切后果将由您自己承担!
    本人不对本人所发布的任何内容负任何法律责任!该下载内容仅做宽带测试使用,请在下载后24小时内删除。请购买正版!
    本人列出的文件没有保存在本站的服务器上,本人仅负责连接,本人对被传播文件的内容一无所知。
    如侵犯视频原作者或发行商版权,请联系本人删除!
    回复

    使用道具 举报

  • TA的每日心情
    开心
    昨天 18:15
  • 签到天数: 489 天

    [LV.9]以坛为家II

    0

    主题

    782

    帖子

    128

    积分

    中级影迷

    Rank: 3Rank: 3

    积分
    128
    发表于 2021-3-18 19:33:49 | 显示全部楼层
    太好了                     
    回复

    使用道具 举报

  • TA的每日心情
    擦汗
    6 小时前
  • 签到天数: 76 天

    [LV.6]常住居民II

    5

    主题

    95

    帖子

    61

    积分

    初级影迷

    Rank: 2

    积分
    61
    发表于 2021-3-18 19:40:16 | 显示全部楼层
    楼主是用什么软件下载的?
    回复

    使用道具 举报

  • TA的每日心情
    无聊
    5 天前
  • 签到天数: 17 天

    [LV.4]偶尔看看III

    0

    主题

    70

    帖子

    17

    积分

    入门影迷

    Rank: 1

    积分
    17
    发表于 2021-3-18 19:49:03 | 显示全部楼层
    感谢分享,先下了看看~~~
    回复

    使用道具 举报

  • TA的每日心情
    开心
    2021-3-19 12:21
  • 签到天数: 80 天

    [LV.6]常住居民II

    1

    主题

    997

    帖子

    66

    积分

    初级影迷

    Rank: 2

    积分
    66
    发表于 2021-3-18 20:04:06 | 显示全部楼层
    支持,先看看,等蓝光再洗版
    回复

    使用道具 举报

    该用户从未签到

    0

    主题

    3

    帖子

    23

    积分

    入门影迷

    Rank: 1

    积分
    23
    发表于 2021-3-18 20:12:10 | 显示全部楼层
    感谢分享!!!!!!
    回复

    使用道具 举报

  • TA的每日心情
    开心
    2021-2-1 07:10
  • 签到天数: 2 天

    [LV.1]初来乍到

    0

    主题

    221

    帖子

    49

    积分

    初级影迷

    Rank: 2

    积分
    49
    发表于 2021-3-18 20:15:48 | 显示全部楼层
    这资源这么牛逼
    回复

    使用道具 举报

  • TA的每日心情
    擦汗
    6 小时前
  • 签到天数: 45 天

    [LV.5]常住居民I

    0

    主题

    132

    帖子

    28

    积分

    初级影迷

    Rank: 2

    积分
    28
    发表于 2021-3-18 20:17:18 | 显示全部楼层
    太好了,那个8G的声音和画质有点差
    回复

    使用道具 举报

  • TA的每日心情
    开心
    4 天前
  • 签到天数: 24 天

    [LV.4]偶尔看看III

    2

    主题

    157

    帖子

    50

    积分

    初级影迷

    Rank: 2

    积分
    50
    发表于 2021-3-18 20:17:58 | 显示全部楼层
    这才是正宗的web版
    回复

    使用道具 举报

  • TA的每日心情
    奋斗
    昨天 13:36
  • 签到天数: 256 天

    [LV.8]以坛为家I

    0

    主题

    346

    帖子

    55

    积分

    初级影迷

    Rank: 2

    积分
    55
    发表于 2021-3-18 20:23:06 | 显示全部楼层
    来了啊老铁
    回复

    使用道具 举报

    您需要登录后才可以回帖 登录 | 立即注册

    本版积分规则

    QQ|Archiver|手机版|小黑屋|影迷乐园

    GMT+8, 2021-4-15 06:38 , Processed in 0.068320 second(s), 28 queries .

    Powered by Discuz! X3.4

    Copyright © 2001-2020, Tencent Cloud.

    快速回复 返回顶部 返回列表