请选择 进入手机版 | 继续访问电脑版

YMLY-影迷乐园-特效字幕 蓝光原盘 1080P 高清动漫电影电视剧

 找回密码
 立即注册
搜索
查看: 1080|回复: 41

[美国] [115+百度][2021][1080P][猎鹰与冬兵S01][外挂中英SUP特效字幕][更至第4集][MKV][2.5GB][The.Falcon.and.The.Winter.Soldier.S01.New.World.Order.1080p.DSNP.WEB-DL.DDP5.1.H.264-TOMMY]

[复制链接]
  • TA的每日心情
    奋斗
    2020-2-21 00:36
  • 签到天数: 656 天

    [LV.9]以坛为家II

    9988

    主题

    1万

    帖子

    9万

    积分

    超级版主

    与齐同行,是最初的梦想,也是一辈子的执着~

    Rank: 16Rank: 16Rank: 16Rank: 16

    积分
    92010

    内测勋章最佳新人十二生肖之猴VIP包月勋章影迷男神小土豪勋章土豪勋章富甲一方精华勋章金话筒主题达人灌水之王

    发表于 2021-3-21 21:09:00 | 显示全部楼层 |阅读模式
    下载说明:

    百度云网盘分享极其不稳定,如有链接失效,请第一时间站内短消息通知我,上线后会第一时间补发!


    片源后缀:TOMMY 特效字幕来自酷漫字幕组,片尾演职未做特效,在意的请勿购买!



    ◎译  名 猎鹰与冬兵 / The Falcon and The Winter Soldier / 猎鹰与冬日战士
    ◎片  名 Falcon & Winter Soldier
    ◎年  代 2021
    ◎产  地 美国
    ◎类  别 剧情 / 喜剧 / 动作
    ◎语  言 英语
    ◎上映日期 2021-03-19(美国)
    ◎IMDb链接  https://www.imdb.com/title/tt9208876
    ◎豆瓣评分 0/10 from 0 users
    ◎豆瓣链接 https://movie.douban.com/subject/30367642/
    ◎集  数 6
    ◎片  长 60分钟
    ◎导  演 卡莉·斯考格兰德 Kari Skogland
    ◎编  剧 德里克·科尔斯塔 Derek Kolstad / 迈克尔·沙特莱恩 Michael Kastelein / 马尔科姆·斯佩尔曼 Malcolm Spellman
    ◎主  演 安东尼·麦凯 Anthony Mackie
           塞巴斯蒂安·斯坦 Sebastian Stan
           丹尼尔·布鲁赫 Daniel Brühl
           艾米丽·万凯普 Emily VanCamp
           唐·钱德尔 Don Cheadle
           怀亚特·罗素 Wyatt Russell
           戴斯蒙·詹 Desmond Chiam
           阿德普波·奥杜耶 Adepero Oduye
           石川美纪 Miki Ishikawa
           诺亚·米尔斯 Noah Mills
           卡尔·卢波利 Carl Lumbly
           约翰·盖蒂尔 John Gettier
           维罗尼卡·法尔孔 Veronica Falcón
           乔治·圣皮埃尔 Georges St-Pierre
           马克·霍克尔 Marc Hockl
           艾琳·凯利曼 Erin Kellyman


    ◎标  签 漫威 | Marvel | 超级英雄 | 美剧 | 塞巴斯蒂安·斯坦 | SebastianStan | 漫画改编 | 美国

    ◎简  介  

      MCU宇宙衍生出来的Disney+ 6集迷你剧《猎鹰与冬兵 Falcon & Winter Soldier》确定在2020年8月上线,这部由Anthony Mackie及Sebastian Stan主演的剧集确定由Malcolm Spellman执笔﹑Kari Skogland执导。有消息源指迷你剧里猎鹰会持有美国队长所送的振金盾,故此剧集应该设定在《复仇者联盟4:终局之战 Avengers: Endgame》之后。另外报导亦指Daniel Bruhl及Emily Van Camp会加盟剧组,前者在《美国队长3 Captain America: Civil War》饰演幕后黑手Zemo,后者最先在《美国队长2 Captain America: The Winter Soldier》登场,饰演Sharon Carter(Peggy Carter是她姑妈)。
    1. General
    2. Unique ID                      : 132144393007092342164498457315308818347 (0x636A1597CC9EAB9BAC95AF44A87D4FAB)
    3. Format                         : Matroska
    4. Format version                 : Version 4
    5. File size                      : 2.50 GiB
    6. Duration                       : 47 min 15 s
    7. Overall bit rate mode          : Variable
    8. Overall bit rate               : 7 559 kb/s
    9. Encoded date                   : UTC 2021-03-19 08:21:18
    10. Writing application            : mkvmerge v44.0.0 ('Domino') 64-bit
    11. Writing library                : libebml v1.3.10 + libmatroska v1.5.2

    12. Video
    13. ID                             : 1
    14. Format                         : AVC
    15. Format/Info                    : Advanced Video Codec
    16. Format profile                 : High@L4
    17. Format settings                : CABAC / 4 Ref Frames
    18. Format settings, CABAC         : Yes
    19. Format settings, Reference fra : 4 frames
    20. Codec ID                       : V_MPEG4/ISO/AVC
    21. Duration                       : 47 min 15 s
    22. Bit rate mode                  : Variable
    23. Bit rate                       : 6 789 kb/s
    24. Maximum bit rate               : 12.7 Mb/s
    25. Width                          : 1 920 pixels
    26. Height                         : 1 080 pixels
    27. Display aspect ratio           : 16:9
    28. Frame rate mode                : Constant
    29. Frame rate                     : 24.000 FPS
    30. Color space                    : YUV
    31. Chroma subsampling             : 4:2:0
    32. Bit depth                      : 8 bits
    33. Scan type                      : Progressive
    34. Bits/(Pixel*Frame)             : 0.136
    35. Stream size                    : 2.24 GiB (90%)
    36. Default                        : Yes
    37. Forced                         : No
    38. Color range                    : Limited
    39. Color primaries                : BT.709
    40. Transfer characteristics       : BT.709
    41. Matrix coefficients            : BT.709

    42. Audio
    43. ID                             : 2
    44. Format                         : E-AC-3 JOC
    45. Format/Info                    : Enhanced AC-3 with Joint Object Coding
    46. Commercial name                : Dolby Digital Plus with Dolby Atmos
    47. Codec ID                       : A_EAC3
    48. Duration                       : 47 min 15 s
    49. Bit rate mode                  : Constant
    50. Bit rate                       : 768 kb/s
    51. Channel(s)                     : 6 channels
    52. Channel layout                 : L R C LFE Ls Rs
    53. Sampling rate                  : 48.0 kHz
    54. Frame rate                     : 31.250 FPS (1536 SPF)
    55. Compression mode               : Lossy
    56. Stream size                    : 260 MiB (10%)
    57. Title                          : English
    58. Language                       : English
    59. Service kind                   : Complete Main
    60. Default                        : Yes
    61. Forced                         : No
    62. Complexity index               : 16
    63. Number of dynamic objects      : 15
    64. Bed channel count              : 1 channel
    65. Bed channel configuration      : LFE
    复制代码





















    购买主题 已有 22 人购买  本主题需向作者支付 30 大洋 才能浏览
    郑重声明:
    本人提供的所有影视作品均是在网上搜集,任何涉及商业盈利目的均不得使用,否则产生的一切后果将由您自己承担!
    本人不对本人所发布的任何内容负任何法律责任!该下载内容仅做宽带测试使用,请在下载后24小时内删除。请购买正版!
    本人列出的文件没有保存在本站的服务器上,本人仅负责连接,本人对被传播文件的内容一无所知。
    如侵犯视频原作者或发行商版权,请联系本人删除!
    回复

    使用道具 举报

  • TA的每日心情
    开心
    7 小时前
  • 签到天数: 407 天

    [LV.9]以坛为家II

    1

    主题

    923

    帖子

    191

    积分

    高级影迷

    Rank: 4

    积分
    191
    发表于 2021-3-21 21:40:14 | 显示全部楼层
    我喜欢的主角
    回复

    使用道具 举报

  • TA的每日心情

    2019-10-24 00:15
  • 签到天数: 5 天

    [LV.2]偶尔看看I

    0

    主题

    1466

    帖子

    180

    积分

    高级影迷

    Rank: 4

    积分
    180
    发表于 2021-3-21 21:47:59 | 显示全部楼层
    感谢分享。
    回复

    使用道具 举报

  • TA的每日心情
    开心
    6 小时前
  • 签到天数: 38 天

    [LV.5]常住居民I

    0

    主题

    66

    帖子

    46

    积分

    初级影迷

    Rank: 2

    积分
    46
    QQ
    发表于 2021-3-21 22:41:51 | 显示全部楼层
    这个资源不错。
    回复

    使用道具 举报

  • TA的每日心情
    奋斗
    昨天 23:59
  • 签到天数: 150 天

    [LV.7]常住居民III

    0

    主题

    172

    帖子

    57

    积分

    初级影迷

    Rank: 2

    积分
    57
    发表于 2021-3-21 22:47:11 | 显示全部楼层
    真是给力的资源,感谢
    回复

    使用道具 举报

  • TA的每日心情
    难过
    2021-4-1 10:29
  • 签到天数: 1 天

    [LV.1]初来乍到

    0

    主题

    77

    帖子

    176

    积分

    高级影迷

    Rank: 4

    积分
    176
    发表于 2021-3-22 00:03:09 | 显示全部楼层
    非常喜欢哈哈哈哈哈
    回复

    使用道具 举报

  • TA的每日心情
    无聊
    15 小时前
  • 签到天数: 304 天

    [LV.8]以坛为家I

    4

    主题

    1144

    帖子

    72

    积分

    中级影迷

    Rank: 3Rank: 3

    积分
    72
    发表于 2021-3-22 00:08:22 | 显示全部楼层

    感谢分享好货
    回复

    使用道具 举报

  • TA的每日心情
    开心
    2021-4-4 02:46
  • 签到天数: 200 天

    [LV.7]常住居民III

    3

    主题

    1998

    帖子

    532

    积分

    专业影迷

    Rank: 8Rank: 8

    积分
    532

    小土豪勋章

    发表于 2021-3-22 00:53:01 | 显示全部楼层
    感谢分享!
    回复

    使用道具 举报

  • TA的每日心情
    开心
    5 小时前
  • 签到天数: 52 天

    [LV.5]常住居民I

    2

    主题

    641

    帖子

    79

    积分

    中级影迷

    Rank: 3Rank: 3

    积分
    79
    发表于 2021-3-22 05:26:38 | 显示全部楼层
    支持高清,感谢分享
    回复

    使用道具 举报

  • TA的每日心情
    开心
    7 小时前
  • 签到天数: 42 天

    [LV.5]常住居民I

    0

    主题

    313

    帖子

    43

    积分

    初级影迷

    Rank: 2

    积分
    43
    发表于 2021-3-22 07:44:41 | 显示全部楼层
    又一部神剧~~~~~~~~~~~~~
    回复

    使用道具 举报

    您需要登录后才可以回帖 登录 | 立即注册

    本版积分规则

    QQ|Archiver|手机版|小黑屋|影迷乐园

    GMT+8, 2021-4-12 15:45 , Processed in 0.149773 second(s), 29 queries .

    Powered by Discuz! X3.4

    Copyright © 2001-2020, Tencent Cloud.

    快速回复 返回顶部 返回列表