请选择 进入手机版 | 继续访问电脑版

YMLY-影迷乐园-特效字幕 蓝光原盘 1080P 高清动漫电影电视剧

 找回密码
 立即注册
搜索
查看: 462|回复: 31

[美国] [115+百度][2021][1080P][猎鹰与冬兵S01.第一季][中英特效硬字幕][更至第4集][MKV][单集1.3GB]

[复制链接]
  • TA的每日心情
    奋斗
    2020-2-21 00:36
  • 签到天数: 656 天

    [LV.9]以坛为家II

    9988

    主题

    1万

    帖子

    9万

    积分

    超级版主

    与齐同行,是最初的梦想,也是一辈子的执着~

    Rank: 16Rank: 16Rank: 16Rank: 16

    积分
    91992

    内测勋章最佳新人十二生肖之猴VIP包月勋章影迷男神小土豪勋章土豪勋章富甲一方精华勋章金话筒主题达人灌水之王

    发表于 2021-4-3 12:29:54 | 显示全部楼层 |阅读模式
    本帖最后由 齐迷小龙 于 2021-4-11 22:06 编辑
    本帖不收大洋,更新一版硬字幕版本吧,适合手机及百度云或115在线看的朋友~

    下载说明:

    百度云网盘分享极其不稳定,如有链接失效,请第一时间站内短消息通知我,上线后会第一时间补发!


    片源 特效字幕来自酷漫字幕组



    ◎译  名 猎鹰与冬兵 / The Falcon and The Winter Soldier / 猎鹰与冬日战士
    ◎片  名 Falcon & Winter Soldier
    ◎年  代 2021
    ◎产  地 美国
    ◎类  别 剧情 / 喜剧 / 动作
    ◎语  言 英语
    ◎上映日期 2021-03-19(美国)
    ◎IMDb链接  https://www.imdb.com/title/tt9208876
    ◎豆瓣评分 0/10 from 0 users
    ◎豆瓣链接 https://movie.douban.com/subject/30367642/
    ◎集  数 6
    ◎片  长 60分钟
    ◎导  演 卡莉·斯考格兰德 Kari Skogland
    ◎编  剧 德里克·科尔斯塔 Derek Kolstad / 迈克尔·沙特莱恩 Michael Kastelein / 马尔科姆·斯佩尔曼 Malcolm Spellman
    ◎主  演 安东尼·麦凯 Anthony Mackie
           塞巴斯蒂安·斯坦 Sebastian Stan
           丹尼尔·布鲁赫 Daniel Brühl
           艾米丽·万凯普 Emily VanCamp
           唐·钱德尔 Don Cheadle
           怀亚特·罗素 Wyatt Russell
           戴斯蒙·詹 Desmond Chiam
           阿德普波·奥杜耶 Adepero Oduye
           石川美纪 Miki Ishikawa
           诺亚·米尔斯 Noah Mills
           卡尔·卢波利 Carl Lumbly
           约翰·盖蒂尔 John Gettier
           维罗尼卡·法尔孔 Veronica Falcón
           乔治·圣皮埃尔 Georges St-Pierre
           马克·霍克尔 Marc Hockl
           艾琳·凯利曼 Erin Kellyman


    ◎标  签 漫威 | Marvel | 超级英雄 | 美剧 | 塞巴斯蒂安·斯坦 | SebastianStan | 漫画改编 | 美国

    ◎简  介  

      MCU宇宙衍生出来的Disney+ 6集迷你剧《猎鹰与冬兵 Falcon & Winter Soldier》确定在2020年8月上线,这部由Anthony Mackie及Sebastian Stan主演的剧集确定由Malcolm Spellman执笔﹑Kari Skogland执导。有消息源指迷你剧里猎鹰会持有美国队长所送的振金盾,故此剧集应该设定在《复仇者联盟4:终局之战 Avengers: Endgame》之后。另外报导亦指Daniel Bruhl及Emily Van Camp会加盟剧组,前者在《美国队长3 Captain America: Civil War》饰演幕后黑手Zemo,后者最先在《美国队长2 Captain America: The Winter Soldier》登场,饰演Sharon Carter(Peggy Carter是她姑妈)。
    1. General
    2. Unique ID                      : 69605964212080961413056771185660374284 (0x345D9EFEFE7540831C55ED72E5B7AD0C)
    3. Format                         : Matroska
    4. Format version                 : Version 4
    5. File size                      : 1.26 GiB
    6. Duration                       : 50 min 49 s
    7. Overall bit rate               : 3 540 kb/s
    8. Movie name                     : [酷漫字幕组][猎鹰与冬兵][The.Falcon.and.the.Winter.Soldier][03][1080P][AVC MKV]
    9. Encoded date                   : UTC 2021-04-03 02:10:14
    10. Writing application            : mkvmerge v40.0.0 ('Old Town Road + Pony') 64-bit
    11. Writing library                : libebml v1.3.9 + libmatroska v1.5.2

    12. Video
    13. ID                             : 1
    14. Format                         : AVC
    15. Format/Info                    : Advanced Video Codec
    16. Format profile                 : High@L4
    17. Format settings                : CABAC / 4 Ref Frames
    18. Format settings, CABAC         : Yes
    19. Format settings, Reference fra : 4 frames
    20. Codec ID                       : V_MPEG4/ISO/AVC
    21. Duration                       : 50 min 49 s
    22. Bit rate                       : 2 770 kb/s
    23. Width                          : 1 920 pixels
    24. Height                         : 1 080 pixels
    25. Display aspect ratio           : 16:9
    26. Frame rate mode                : Constant
    27. Frame rate                     : 24.000 FPS
    28. Color space                    : YUV
    29. Chroma subsampling             : 4:2:0
    30. Bit depth                      : 8 bits
    31. Scan type                      : Progressive
    32. Bits/(Pixel*Frame)             : 0.056
    33. Stream size                    : 1 007 MiB (78%)
    34. Writing library                : x264 core 148 r2721+46 0c4b09a xiaowan [8-bit@all X86_64]
    35. Encoding settings              : cabac=1 / ref=4 / deblock=1:1:1 / analyse=0x3:0x133 / me=umh / subme=10 / psy=1 / fade_compensate=0.00 / psy_rd=0.30:0.00 / mixed_ref=1 / me_range=24 / chroma_me=1 / trellis=2 / 8x8dct=1 / cqm=0 / deadzone=21,11 / fast_pskip=1 / chroma_qp_offset=-2 / threads=8 / lookahead_threads=1 / sliced_threads=0 / nr=0 / decimate=1 / interlaced=0 / bluray_compat=0 / constrained_intra=0 / fgo=0 / bframes=3 / b_pyramid=2 / b_adapt=2 / b_bias=0 / direct=3 / weightb=1 / open_gop=0 / weightp=2 / keyint=240 / keyint_min=1 / scenecut=60 / intra_refresh=0 / rc_lookahead=60 / rc=crf / mbtree=1 / crf=18.0000 / qcomp=0.50 / qpmin=0:0:0 / qpmax=69:69:69 / qpstep=4 / ip_ratio=1.40 / aq=2:0.80 / aq-sensitivity=10.00 / aq-factor=1.00:1.00:1.00 / aq2=0 / aq3=0
    36. Default                        : Yes
    37. Forced                         : No

    38. Audio
    39. ID                             : 2
    40. Format                         : E-AC-3 JOC
    41. Format/Info                    : Enhanced AC-3 with Joint Object Coding
    42. Commercial name                : Dolby Digital Plus with Dolby Atmos
    43. Codec ID                       : A_EAC3
    44. Duration                       : 50 min 49 s
    45. Bit rate mode                  : Constant
    46. Bit rate                       : 768 kb/s
    47. Channel(s)                     : 6 channels
    48. Channel layout                 : L R C LFE Ls Rs
    49. Sampling rate                  : 48.0 kHz
    50. Frame rate                     : 31.250 FPS (1536 SPF)
    51. Compression mode               : Lossy
    52. Stream size                    : 279 MiB (22%)
    53. Title                          : English
    54. Language                       : English
    55. Service kind                   : Complete Main
    56. Default                        : Yes
    57. Forced                         : No
    58. Complexity index               : 16
    59. Number of dynamic objects      : 15
    60. Bed channel count              : 1 channel
    61. Bed channel configuration      : LFE
    复制代码




















    游客,如果您要查看本帖隐藏内容请回复
    郑重声明:
    本人提供的所有影视作品均是在网上搜集,任何涉及商业盈利目的均不得使用,否则产生的一切后果将由您自己承担!
    本人不对本人所发布的任何内容负任何法律责任!该下载内容仅做宽带测试使用,请在下载后24小时内删除。请购买正版!
    本人列出的文件没有保存在本站的服务器上,本人仅负责连接,本人对被传播文件的内容一无所知。
    如侵犯视频原作者或发行商版权,请联系本人删除!
    回复

    使用道具 举报

    该用户从未签到

    0

    主题

    362

    帖子

    614

    积分

    专业影迷

    Rank: 8Rank: 8

    积分
    614
    发表于 2021-4-3 12:33:48 | 显示全部楼层
    回复

    使用道具 举报

  • TA的每日心情
    郁闷
    14 小时前
  • 签到天数: 224 天

    [LV.7]常住居民III

    0

    主题

    345

    帖子

    61

    积分

    初级影迷

    Rank: 2

    积分
    61
    发表于 2021-4-3 12:40:03 | 显示全部楼层
    感谢分享!!!
    回复

    使用道具 举报

  • TA的每日心情
    擦汗
    2020-11-14 12:36
  • 签到天数: 3 天

    [LV.2]偶尔看看I

    0

    主题

    11

    帖子

    20

    积分

    入门影迷

    Rank: 1

    积分
    20
    发表于 2021-4-3 12:48:50 | 显示全部楼层
    感谢楼主的分项啊啊
    回复

    使用道具 举报

  • TA的每日心情
    慵懒
    14 小时前
  • 签到天数: 192 天

    [LV.7]常住居民III

    2

    主题

    468

    帖子

    85

    积分

    中级影迷

    Rank: 3Rank: 3

    积分
    85
    发表于 2021-4-3 14:06:47 | 显示全部楼层
    特效硬字幕看着也蛮爽的,顶起
    回复

    使用道具 举报

  • TA的每日心情
    开心
    半小时前
  • 签到天数: 79 天

    [LV.6]常住居民II

    0

    主题

    752

    帖子

    67

    积分

    初级影迷

    Rank: 2

    积分
    67
    发表于 2021-4-3 14:51:14 | 显示全部楼层
    感谢楼主分享
    回复

    使用道具 举报

  • TA的每日心情
    开心
    昨天 08:43
  • 签到天数: 6 天

    [LV.2]偶尔看看I

    0

    主题

    22

    帖子

    7

    积分

    入门影迷

    Rank: 1

    积分
    7
    发表于 2021-4-3 15:52:51 | 显示全部楼层
    谢谢分享。。。
    回复

    使用道具 举报

  • TA的每日心情
    开心
    昨天 15:25
  • 签到天数: 242 天

    [LV.8]以坛为家I

    0

    主题

    418

    帖子

    872

    积分

    资深影迷

    Rank: 10Rank: 10Rank: 10

    积分
    872
    发表于 2021-4-3 17:23:13 | 显示全部楼层
    漫威剧集都很喜欢,谢谢楼主的无私分享啊!
    回复

    使用道具 举报

  • TA的每日心情
    开心
    7 小时前
  • 签到天数: 266 天

    [LV.8]以坛为家I

    1

    主题

    2994

    帖子

    539

    积分

    专业影迷

    Rank: 8Rank: 8

    积分
    539
    发表于 2021-4-3 17:50:11 | 显示全部楼层
    谢谢楼主分享
    回复

    使用道具 举报

  • TA的每日心情
    开心
    2021-4-3 18:01
  • 签到天数: 1 天

    [LV.1]初来乍到

    0

    主题

    3

    帖子

    23

    积分

    入门影迷

    Rank: 1

    积分
    23
    发表于 2021-4-3 18:03:56 | 显示全部楼层
    好资源 顶一下
    回复

    使用道具 举报

    您需要登录后才可以回帖 登录 | 立即注册

    本版积分规则

    QQ|Archiver|手机版|小黑屋|影迷乐园

    GMT+8, 2021-4-12 14:55 , Processed in 0.065230 second(s), 26 queries .

    Powered by Discuz! X3.4

    Copyright © 2001-2020, Tencent Cloud.

    快速回复 返回顶部 返回列表