请选择 进入手机版 | 继续访问电脑版

YMLY-影迷乐园-特效字幕 蓝光原盘 1080P 高清动漫电影电视剧

 找回密码
 立即注册
搜索
查看: 339|回复: 20

[韩国] [百度][2021][1080P][窥探][韩语.外挂繁中字幕][更至第11集][MKV][27.83GB][Mouse.S01.1080p.WEB-DL.H264.AAC-AppleTor]

[复制链接]
  • TA的每日心情
    奋斗
    2020-2-21 00:36
  • 签到天数: 656 天

    [LV.9]以坛为家II

    9988

    主题

    1万

    帖子

    9万

    积分

    超级版主

    与齐同行,是最初的梦想,也是一辈子的执着~

    Rank: 16Rank: 16Rank: 16Rank: 16

    积分
    91999

    内测勋章最佳新人十二生肖之猴VIP包月勋章影迷男神小土豪勋章土豪勋章富甲一方精华勋章金话筒主题达人灌水之王

    发表于 7 天前 | 显示全部楼层 |阅读模式
    下载说明:

    百度云网盘分享极其不稳定,如有链接失效,请第一时间站内短消息通知我,上线后会第一时间补发!


    ----转载自CMCT,感谢压制和原发布人员,特此鸣谢!----



    ◎译  名 窥探/Mouse
    ◎片  名 마우스
    ◎年  代 2021
    ◎产  地 韩国
    ◎类  别 剧情 / 悬疑 / 犯罪
    ◎语  言 韩语
    ◎上映日期 2021-03-03(韩国)
    ◎IMDb评分  8.7/10 from 221 users
    ◎IMDb链接  https://www.imdb.com/title/tt13634792/
    ◎豆瓣评分 8.6/10 from 27838 users
    ◎豆瓣链接 https://movie.douban.com/subject/35027568/
    ◎集  数 20
    ◎片  长 80分钟
    ◎导  演 崔俊裴 Joon-bae Choi
    ◎编  剧 崔兰 Ran Choi
    ◎主  演 李昇基 Seung gi Lee
           李熙俊 Hee-jun Lee
           朴柱炫 Joo-Hyun Park
           景收真 Soo-Jin Kyung
           安在旭 Jae-wook Ahn
           金贞兰 Jeong-nan Kim
           权华焕 Hwa-woon Kwon
           赵在允 Jae-yun Jo
           金英玉 Young-ok Kim
           安内相 Nae-sang Ahn
           金英在 Yeong-jae Kim
           表志勋 P.O
           禹志贤 Woo Ji-hyeon
           金嫝勋 Kang Hoon Kim
           徐东贤 Dong-hyun Seo
           孙武铉 Son Woo-Hyun
           朴昭怡 So-i Park
           徐正妍 Seo Jung-yeon
           郑锡勇 Seok-yong Jeong
           郑恩彪 Eun-pyo Jeong
           李言廷 Eon-jeong Lee
           白济宇 Baek Jae Woo
           徐宇真 Woo-jin Seo
           何英 Young Ha
           金敏京 Min-kyung Kim
           郑爱丽 Ae-ri Jeong
           姜灿阳 Chan-yang Kang
           玄奉植 Bong-shik Hyun
           赵莞基 Wan-gi Jo
           朱艺琳 Ye-rim Joo
           姜末琴 Mal-Geum Kang
           刘河福 Ha-bok Yoo
           朴庸 Yong Park
           李瑞准 Seo-joon Lee
           金洁 Kim Kyoul
           韩昌贤 Han Chang-hyeon
           成灿镐 Chan-Ho Sung
           裴成一 Seong-il Bae
           尹瑞贤 Seo-hyun Yoon
           郭民浩 Kwak Min-ho
           朴在琓 Jae-wan Park
            宋富健 Boo-geon Song
           闵恩石 Eung-Sik Min
           刘墉 Yoo-Yong
           金河严 Ha-Eon Kim
           宋仁燮 In-seop Song
           宋珉哉 Min-jae Song
           金美惠 Mi-hye Kim
            安瑞妍 Seo-yeon Ahn
           金东河 Dong-ha Kim
           郑强熙 Kang-hee Jung
           赵渊浩 Yeon-ho Jo
           吴敏俊 Min-joon  Oh
           吕运福 Woon-bok Yeo
           洪锡然 Suk-Youn Hong
           郑贤锡 Hyeon-seok Jeong
           权赫洙 Kwon Hyuk Soo
           申妍淑 Yeon-suk Shin
           黄世温 Se-on Hwang
           金秀仁 Soo-In Kim

    ◎标  签 悬疑 | 犯罪 | 韩剧 | 韩国 | 李昇基 | 电视剧 | 2021 | 電視劇

    ◎简  介

      以「如果可以通过胎儿基因检测是否为精神病患者,肚子里的孩子被确认是患者,您是否会选择生下来?」为主题所展开的故事。将不同于以往精神病题材的电视剧。
      李昇基饰演正直的年轻刑警,面对不公正的事就据理力争,将与让全国陷入恐怖的先天精神病患的罪犯对峙,完全改变自己人生的角色。

    1. General
    2. Format                         : MPEG-4
    3. Format profile                 : JVT
    4. Codec ID                       : avc1 (isom/avc1)
    5. File size                      : 2.23 GiB
    6. Duration                       : 1 h 3 min
    7. Overall bit rate mode          : Variable
    8. Overall bit rate               : 5 055 kb/s
    9. Encoded date                   : UTC 2021-02-28 15:50:56
    10. Tagged date                    : UTC 2021-02-28 15:50:56

    11. Video
    12. ID                             : 1
    13. Format                         : AVC
    14. Format/Info                    : Advanced Video Codec
    15. Format profile                 : High@L4
    16. Format settings                : CABAC / 1 Ref Frames
    17. Format settings, CABAC         : Yes
    18. Format settings, ReFrames      : 1 frame
    19. Codec ID                       : avc1
    20. Codec ID/Info                  : Advanced Video Coding
    21. Duration                       : 1 h 3 min
    22. Bit rate mode                  : Variable
    23. Bit rate                       : 4 792 kb/s
    24. Maximum bit rate               : 5 500 kb/s
    25. Width                          : 1 920 pixels
    26. Height                         : 1 080 pixels
    27. Display aspect ratio           : 16:9
    28. Frame rate mode                : Constant
    29. Frame rate                     : 29.970 (30000/1001) FPS
    30. Color space                    : YUV
    31. Chroma subsampling             : 4:2:0
    32. Bit depth                      : 8 bits
    33. Scan type                      : Progressive
    34. Bits/(Pixel*Frame)             : 0.077
    35. Stream size                    : 2.12 GiB (95%)
    36. Encoded date                   : UTC 2021-02-28 15:50:56
    37. Tagged date                    : UTC 2021-02-28 15:50:56

    38. Audio
    39. ID                             : 2
    40. Format                         : AAC
    41. Format/Info                    : Advanced Audio Codec
    42. Format profile                 : LC
    43. Codec ID                       : mp4a-40-2
    44. Duration                       : 1 h 3 min
    45. Bit rate mode                  : Constant
    46. Bit rate                       : 256 kb/s
    47. Channel(s)                     : 2 channels
    48. Channel positions              : Front: L R
    49. Sampling rate                  : 48.0 kHz
    50. Frame rate                     : 46.875 FPS (1024 SPF)
    51. Compression mode               : Lossy
    52. Stream size                    : 116 MiB (5%)
    53. Default                        : Yes
    54. Alternate group                : 1
    55. Encoded date                   : UTC 2021-02-28 15:50:56
    56. Tagged date                    : UTC 2021-02-28 15:50:56
    复制代码





    购买主题 已有 7 人购买  本主题需向作者支付 60 大洋 才能浏览
    郑重声明:
    本人提供的所有影视作品均是在网上搜集,任何涉及商业盈利目的均不得使用,否则产生的一切后果将由您自己承担!
    本人不对本人所发布的任何内容负任何法律责任!该下载内容仅做宽带测试使用,请在下载后24小时内删除。请购买正版!
    本人列出的文件没有保存在本站的服务器上,本人仅负责连接,本人对被传播文件的内容一无所知。
    如侵犯视频原作者或发行商版权,请联系本人删除!
    回复

    使用道具 举报

  • TA的每日心情
    奋斗
    6 小时前
  • 签到天数: 127 天

    [LV.7]常住居民III

    20

    主题

    277

    帖子

    165

    积分

    高级影迷

    Rank: 4

    积分
    165
    发表于 3 天前 | 显示全部楼层
    补发
    简中字幕
    链接:https://pan.baidu.com/s/1-WySv57w2P_Hk7zM0z1AVQ 密码:38ka
    特辑含简繁字幕
    链接:https://pan.baidu.com/s/1XVreuwuiQ-Q0AjASfYCCgQ 密码:akw1

    评分

    参与人数 1大洋 +20 收起 理由
    齐迷小龙 + 20 赞一个!

    查看全部评分

    回复

    使用道具 举报

  • TA的每日心情
    郁闷
    2020-7-26 13:16
  • 签到天数: 13 天

    [LV.3]偶尔看看II

    1

    主题

    475

    帖子

    200

    积分

    高级影迷

    Rank: 4

    积分
    200
    发表于 7 天前 | 显示全部楼层
    感谢楼主分享
    回复

    使用道具 举报

  • TA的每日心情
    擦汗
    2 小时前
  • 签到天数: 80 天

    [LV.6]常住居民II

    1

    主题

    217

    帖子

    77

    积分

    中级影迷

    Rank: 3Rank: 3

    积分
    77
    发表于 7 天前 | 显示全部楼层
    把高分电影和电视剧都收集全了~需要多大空间?
    回复

    使用道具 举报

  • TA的每日心情
    开心
    昨天 21:32
  • 签到天数: 42 天

    [LV.5]常住居民I

    0

    主题

    425

    帖子

    92

    积分

    中级影迷

    Rank: 3Rank: 3

    积分
    92
    发表于 7 天前 | 显示全部楼层
    感谢分享感谢分享感谢分享
    回复

    使用道具 举报

  • TA的每日心情
    无聊
    13 小时前
  • 签到天数: 12 天

    [LV.3]偶尔看看II

    0

    主题

    321

    帖子

    138

    积分

    中级影迷

    Rank: 3Rank: 3

    积分
    138
    发表于 7 天前 | 显示全部楼层
    谢谢分享 非常好
    回复

    使用道具 举报

  • TA的每日心情
    开心
    昨天 12:11
  • 签到天数: 353 天

    [LV.8]以坛为家I

    2

    主题

    1848

    帖子

    116

    积分

    中级影迷

    Rank: 3Rank: 3

    积分
    116
    发表于 7 天前 | 显示全部楼层
    感谢分享好资源
    回复

    使用道具 举报

  • TA的每日心情
    开心
    14 小时前
  • 签到天数: 192 天

    [LV.7]常住居民III

    0

    主题

    751

    帖子

    78

    积分

    中级影迷

    Rank: 3Rank: 3

    积分
    78
    发表于 6 天前 | 显示全部楼层
    感谢楼主发的好片啊
    回复

    使用道具 举报

  • TA的每日心情
    开心
    7 小时前
  • 签到天数: 66 天

    [LV.6]常住居民II

    10

    主题

    638

    帖子

    42

    积分

    初级影迷

    Rank: 2

    积分
    42
    发表于 6 天前 | 显示全部楼层
    看看怎么样
    回复

    使用道具 举报

  • TA的每日心情
    郁闷
    4 小时前
  • 签到天数: 194 天

    [LV.7]常住居民III

    9

    主题

    2104

    帖子

    462

    积分

    专业影迷

    Rank: 8Rank: 8

    积分
    462
    发表于 6 天前 | 显示全部楼层
    谢谢分享!
    回复

    使用道具 举报

  • TA的每日心情
    开心
    昨天 17:21
  • 签到天数: 227 天

    [LV.7]常住居民III

    0

    主题

    322

    帖子

    23

    积分

    入门影迷

    Rank: 1

    积分
    23
    发表于 6 天前 | 显示全部楼层
    感谢分享好资源
    回复

    使用道具 举报

    您需要登录后才可以回帖 登录 | 立即注册

    本版积分规则

    QQ|Archiver|手机版|小黑屋|影迷乐园

    GMT+8, 2021-4-12 15:21 , Processed in 3.882352 second(s), 31 queries .

    Powered by Discuz! X3.4

    Copyright © 2001-2020, Tencent Cloud.

    快速回复 返回顶部 返回列表