请选择 进入手机版 | 继续访问电脑版

YMLY-影迷乐园-特效字幕 蓝光原盘 1080P 高清动漫电影电视剧

 找回密码
 立即注册
搜索
查看: 53|回复: 4

[港台电影] [百度][1993][1080P][关东太阳会][国语无字幕][胡慧中 郑浩南 权成荣 ][4.98GB][TS][The.Sun.Society.1993.HDTV.1080p.H264.AAC@YMLY][CHCHD]

[复制链接]
  • TA的每日心情
    开心
    2021-2-2 20:54
  • 签到天数: 31 天

    [LV.5]常住居民I

    46

    主题

    122

    帖子

    376

    积分

    超级影迷

    Rank: 6Rank: 6

    积分
    376

    小土豪勋章

    发表于 7 天前 | 显示全部楼层 |阅读模式
    下载说明:

    百度网盘分享极其不稳定,如有链接失效,请第一时间站内短消息通知我,上线后会第一时间补发!请大家多多谅解!电驴链接只能115会员离线下载,其它工具都下载不了!

    ----本视频为原创录制,资源首发影迷乐园,转载请注明出处谢谢!----

    关东太阳会 (1993)
    导演: 罗棋
    主演: 胡慧中 / 郑浩南 / 权成荣 / 常山 / 高强 / 更多...
    类型: 剧情 / 动作 / 爱情 / 武侠
    制片国家/地区: 中国台湾 / 中国大陆 / 韩国
    语言:  汉语普通话
    上映日期: 1993-01-25(中国台湾)
    片长: 81分钟
    又名: The Sun Society / Rendezvous of Japanese Kanto / The Gambler / The Continent of Ambition / 野望的大陆(韩国)
    剧情简介 · · · · · ·
      1918年事变后,日军占领下的奉天。孟镇德(郑浩南 饰)赌场内,凯旋大舞厅的老板李菁(胡慧中 饰)急忙来找孟镇德,告诉他,舞厅歌女美顺从日本黑道头目古马那里获悉,运送军火的汽车明天下午4点去哈尔滨。次日午后,孟镇德率全副武装的弟兄袭击了军火车。奉天的街道上,日本浪人凌辱百姓,被一位叫李上大的壮汉打得跪地求饶。原来,李上大是来奉天寻找失散的恋人美顺的。他绝没想到,如今美顺已成了凯旋大舞厅红极一时的歌女,并被日本黑社会古马会长霸占为情妇。日本浪人到赌场寻衅,被孟镇德赶出场,此举令古马十分恼火。几天后,古马派负责地片的小林(程天赐 饰)带人将孟镇德杀害。一天,李上大在街上痛打了施虐的小林,被老百姓誉为英雄,并冠以“奉天三虎”的美称。奉天抗日志士成立了一个组织,拥戴李上大做领袖。一名日本记者在舞厅侮辱舞女遭到李上大的教训,李菁非常感激,忙备酒款待。美顺被叫来作陪,一对失散多年的恋人在异乡得以重逢。古马派人刺杀李上大未遂,李菁将身负重伤的李上大救出,并通知了美顺。一对热恋的情人含泪相拥,诉说思念之苦。美顺从古马口中得知,近几天将有大批无辜同胞被运往哈尔滨供做细菌实验。美顺忙用电话通知李菁,结果被暗探发现。尽管第二天劫车成功,美顺却被捕入狱。后来古马得知李菁参与劫车,便一次次谋害李菁。李菁被逼无奈,找李上大联手剪除古马。李菁和李上大等人潜入古马总部,不料古马防范在先,使他们陷入重围。美顺也被当做人质。美顺鼓励李上大英勇杀敌,她自己却惨死在乱刀之下。古马举刀刺向李上大,被李上大飞脚将战刀反踢进古马腹中。李上大、李菁刚刚杀出古马总部,一队荷枪实弹的日本兵拦在面前,枪战中,李上大、李菁壮烈献身,但他们的英名与日月同辉。

    General
    ID                             : 1 (0x1)
    Complete name                  : E:\关东太阳会.1993.HDTV.1080P.CHCHD.长春电影制片厂.tt
    Format                         : MPEG-TS
    File size                      : 4.98 GiB
    Duration                       : 1 h 21 min
    Overall bit rate mode          : Variable
    Overall bit rate               : 8 803 kb/s
    FileExtension_Invalid          : ts m2t m2s m4t m4s tmf ts tp trp ty

    Video
    ID                             : 33 (0x21)
    Menu ID                        : 1 (0x1)
    Format                         : AVC
    Format/Info                    : Advanced Video Codec
    Format profile                 : Main@L4
    Format settings                : CABAC / 1 Ref Frames
    Format settings, CABAC         : Yes
    Format settings, Reference fra : 1 frame
    Codec ID                       : 27
    Duration                       : 1 h 21 min
    Bit rate mode                  : Constant
    Bit rate                       : 8 000 kb/s
    Width                          : 1 920 pixels
    Height                         : 1 080 pixels
    Display aspect ratio           : 16:9
    Frame rate                     : 25.000 FPS
    Standard                       : Component
    Color space                    : YUV
    Chroma subsampling             : 4:2:0
    Bit depth                      : 8 bits
    Scan type                      : MBAFF
    Scan type, store method        : Interleaved fields
    Scan order                     : Top Field First
    Bits/(Pixel*Frame)             : 0.154
    Stream size                    : 4.66 GiB (94%)
    Color range                    : Limited

    Audio
    ID                             : 49 (0x31)
    Menu ID                        : 1 (0x1)
    Format                         : MPEG Audio
    Format version                 : Version 1
    Format profile                 : Layer 2
    Codec ID                       : 3
    Duration                       : 1 h 21 min
    Bit rate mode                  : Constant
    Bit rate                       : 128 kb/s
    Channel(s)                     : 2 channels
    Sampling rate                  : 32.0 kHz
    Frame rate                     : 27.778 FPS (1152 SPF)
    Compression mode               : Lossy
    Delay relative to video        : -25 ms
    Stream size                    : 74.2 MiB (1%)

    Menu
    ID                             : 32 (0x20)
    Menu ID                        : 1 (0x1)
    Duration                       : 1 h 21 min
    List                           : 33 (0x21) (AVC) / 49 (0x31) (MPEG Audio)
    Service name                   : SCV service
    Service provider               : SCV
    Service type                   : digital television





    购买主题 本主题需向作者支付 10 大洋 才能浏览
    回复

    使用道具 举报

  • TA的每日心情
    开心
    昨天 14:32
  • 签到天数: 277 天

    [LV.8]以坛为家I

    0

    主题

    3466

    帖子

    260

    积分

    超级影迷

    Rank: 6Rank: 6

    积分
    260
    发表于 7 天前 | 显示全部楼层
    谢谢分享!
    回复

    使用道具 举报

  • TA的每日心情
    无聊
    昨天 15:01
  • 签到天数: 196 天

    [LV.7]常住居民III

    9

    主题

    2124

    帖子

    468

    积分

    专业影迷

    Rank: 8Rank: 8

    积分
    468
    发表于 7 天前 | 显示全部楼层
    谢谢分享!
    回复

    使用道具 举报

  • TA的每日心情
    开心
    昨天 07:03
  • 签到天数: 268 天

    [LV.8]以坛为家I

    1

    主题

    3016

    帖子

    543

    积分

    专业影迷

    Rank: 8Rank: 8

    积分
    543
    发表于 7 天前 | 显示全部楼层
    谢谢楼主分享
    回复

    使用道具 举报

  • TA的每日心情
    开心
    昨天 11:33
  • 签到天数: 9 天

    [LV.3]偶尔看看II

    0

    主题

    165

    帖子

    8

    积分

    入门影迷

    Rank: 1

    积分
    8
    发表于 昨天 11:33 | 显示全部楼层
    好资源,感谢分享
    回复

    使用道具 举报

    您需要登录后才可以回帖 登录 | 立即注册

    本版积分规则

    QQ|Archiver|手机版|小黑屋|影迷乐园

    GMT+8, 2021-4-15 07:45 , Processed in 0.060657 second(s), 27 queries .

    Powered by Discuz! X3.4

    Copyright © 2001-2020, Tencent Cloud.

    快速回复 返回顶部 返回列表