请选择 进入手机版 | 继续访问电脑版

YMLY-影迷乐园-特效字幕 蓝光原盘 1080P 高清动漫电影电视剧

 找回密码
 立即注册
搜索
查看: 5330|回复: 105

[美国] [115+百度][2021][1080P][洛基S01.第一季][英语.中英硬特效字幕][6集全][MKV][7.06GB]

  [复制链接]
  • TA的每日心情
    奋斗
    2020-2-21 00:36
  • 签到天数: 656 天

    [LV.9]以坛为家II

    1万

    主题

    1万

    帖子

    15万

    积分

    超级版主

    与齐同行,是最初的梦想,也是一辈子的执着~

    Rank: 16Rank: 16Rank: 16Rank: 16

    积分
    159976

    内测勋章最佳新人十二生肖之猴VIP包月勋章影迷男神小土豪勋章土豪勋章富甲一方精华勋章金话筒主题达人灌水之王

    发表于 2021-6-21 18:45:05 | 显示全部楼层 |阅读模式
    转自酷漫字幕组,硬字幕,适合网盘在线观看~




    ◎译  名 洛基 第一季/Loki/洛基传/洛奇
    ◎片  名 Loki Season 1
    ◎年  代 2021
    ◎产  地 美国
    ◎类  别 动作 / 科幻 / 奇幻 / 冒险
    ◎语  言 英语
    ◎上映日期 2021-06-09(美国)
    ◎IMDb评分  9.1/10 from 34653 users
    ◎IMDb链接  https://www.imdb.com/title/tt9140554/
    ◎豆瓣评分 9.2/10 from 25889 users
    ◎豆瓣链接 https://movie.douban.com/subject/30331432/
    ◎集  数 6
    ◎片  长 55分钟
    ◎导  演 凯特·赫伦 Kate Herron
    ◎编  剧 迈克尔·沃尔德伦 Michael Waldron / 杰克·科比 Jack Kirby / 斯坦·李 Stan Lee / 拉里·利伯 Larry Lieber
    ◎主  演 汤姆·希德勒斯顿 Tom Hiddleston
           欧文·威尔逊 Owen Wilson
           古古·姆巴塔-劳 Gugu Mbatha-Raw
           索菲娅·迪·马蒂诺 Sophia Di Martino
           乌米·马萨库 Wunmi Mosaku
           理查德·E·格兰特 Richard E. Grant
           萨莎·莱恩 Sasha Lane
           埃里卡·科尔曼 Erika Coleman
           卢修斯·巴斯顿 Lucius Baston
           迈克尔·罗斯 Michael Rose
           凯莱·弗莱明 Cailey Fleming
           艾伦·比尔纳 Aaron Beelner
           凯特·戴琳斯 Kat Dennings
           塔拉·斯特朗 Tara Strong
           乔希·法德姆 Josh Fadem
           Isabelle Fretheim Isabelle Fretheim
           Michelle Rose Michelle Rose
           凯特·贝兰特 Kate Berlant

    ◎标  签 漫威 | Loki | 漫威电影宇宙 | 汤姆·希德勒斯顿 | 美剧 | Marvel | 科幻 | 美国

    ◎简  介

      故事聚焦在《复仇者联盟4:终局之战》中,另一时空拿走空间宝石(Space Stone)的洛基,描述他作为一名恶作剧之神和变形者的身份,现身在人类历史中的多个时期,影响着历史事件。
    1. General
    2. Unique ID                      : 9691236792846716805825664077958305469 (0x74A76DD440F62F6E4F87EAB897556BD)
    3. Format                         : Matroska
    4. Format version                 : Version 4
    5. File size                      : 1.43 GiB
    6. Duration                       : 53 min 12 s
    7. Overall bit rate               : 3 843 kb/s
    8. Movie name                     : [酷漫字幕组][洛基][Loki][02][1080P][AVC MKV]
    9. Encoded date                   : UTC 2021-06-16 23:55:55
    10. Writing application            : mkvmerge v40.0.0 ('Old Town Road + Pony') 64-bit
    11. Writing library                : libebml v1.3.9 + libmatroska v1.5.2
    12. Cover                          : Yes
    13. Attachments                    : cover.jpg

    14. Video
    15. ID                             : 1
    16. Format                         : AVC
    17. Format/Info                    : Advanced Video Codec
    18. Format profile                 : High@L4
    19. Format settings                : CABAC / 4 Ref Frames
    20. Format settings, CABAC         : Yes
    21. Format settings, Reference fra : 4 frames
    22. Codec ID                       : V_MPEG4/ISO/AVC
    23. Duration                       : 53 min 12 s
    24. Bit rate                       : 3 072 kb/s
    25. Width                          : 1 920 pixels
    26. Height                         : 1 080 pixels
    27. Display aspect ratio           : 16:9
    28. Frame rate mode                : Constant
    29. Frame rate                     : 24.000 FPS
    30. Color space                    : YUV
    31. Chroma subsampling             : 4:2:0
    32. Bit depth                      : 8 bits
    33. Scan type                      : Progressive
    34. Bits/(Pixel*Frame)             : 0.062
    35. Stream size                    : 1.14 GiB (80%)
    36. Writing library                : x264 core 148 r2721+46 0c4b09a xiaowan [8-bit@all X86_64]
    37. Encoding settings              : cabac=1 / ref=4 / deblock=1:1:1 / analyse=0x3:0x133 / me=umh / subme=10 / psy=1 / fade_compensate=0.00 / psy_rd=0.30:0.00 / mixed_ref=1 / me_range=24 / chroma_me=1 / trellis=2 / 8x8dct=1 / cqm=0 / deadzone=21,11 / fast_pskip=1 / chroma_qp_offset=-2 / threads=8 / lookahead_threads=1 / sliced_threads=0 / nr=0 / decimate=1 / interlaced=0 / bluray_compat=0 / constrained_intra=0 / fgo=0 / bframes=3 / b_pyramid=2 / b_adapt=2 / b_bias=0 / direct=3 / weightb=1 / open_gop=0 / weightp=2 / keyint=240 / keyint_min=1 / scenecut=60 / intra_refresh=0 / rc_lookahead=60 / rc=crf / mbtree=1 / crf=16.0000 / qcomp=0.50 / qpmin=0:0:0 / qpmax=69:69:69 / qpstep=4 / ip_ratio=1.40 / aq=2:0.80 / aq-sensitivity=10.00 / aq-factor=1.00:1.00:1.00 / aq2=0 / aq3=0
    38. Default                        : Yes
    39. Forced                         : No

    40. Audio
    41. ID                             : 2
    42. Format                         : E-AC-3 JOC
    43. Format/Info                    : Enhanced AC-3 with Joint Object Coding
    44. Commercial name                : Dolby Digital Plus with Dolby Atmos
    45. Codec ID                       : A_EAC3
    46. Duration                       : 53 min 12 s
    47. Bit rate mode                  : Constant
    48. Bit rate                       : 768 kb/s
    49. Channel(s)                     : 6 channels
    50. Channel layout                 : L R C LFE Ls Rs
    51. Sampling rate                  : 48.0 kHz
    52. Frame rate                     : 31.250 FPS (1536 SPF)
    53. Compression mode               : Lossy
    54. Stream size                    : 292 MiB (20%)
    55. Language                       : English
    56. Service kind                   : Complete Main
    57. Default                        : Yes
    58. Forced                         : No
    59. Complexity index               : 16
    60. Number of dynamic objects      : 15
    61. Bed channel count              : 1 channel
    62. Bed channel configuration      : LFE
    复制代码













    购买主题 已有 62 人购买  本主题需向作者支付 10 大洋 才能浏览
    郑重声明:
    本人提供的所有影视作品均是在网上搜集,任何涉及商业盈利目的均不得使用,否则产生的一切后果将由您自己承担!
    本人不对本人所发布的任何内容负任何法律责任!该下载内容仅做宽带测试使用,请在下载后24小时内删除。请购买正版!
    本人列出的文件没有保存在本站的服务器上,本人仅负责连接,本人对被传播文件的内容一无所知。
    如侵犯视频原作者或发行商版权,请联系本人删除!
    回复

    使用道具 举报

  • TA的每日心情
    开心
    昨天 10:48
  • 签到天数: 81 天

    [LV.6]常住居民II

    2

    主题

    227

    帖子

    129

    积分

    中级影迷

    Rank: 3Rank: 3

    积分
    129
    发表于 2021-6-21 19:33:41 | 显示全部楼层
    感谢分享
    回复

    使用道具 举报

  • TA的每日心情

    昨天 22:24
  • 签到天数: 114 天

    [LV.6]常住居民II

    2

    主题

    1301

    帖子

    217

    积分

    高级影迷

    Rank: 4

    积分
    217
    发表于 2021-6-21 20:12:34 | 显示全部楼层
    比电影更精彩
    回复

    使用道具 举报

  • TA的每日心情
    擦汗
    2 小时前
  • 签到天数: 155 天

    [LV.7]常住居民III

    0

    主题

    922

    帖子

    319

    积分

    超级影迷

    Rank: 6Rank: 6

    积分
    319

    小土豪勋章

    发表于 2021-6-21 21:26:53 | 显示全部楼层
    漫威又来发刀子啦~
    回复

    使用道具 举报

  • TA的每日心情
    开心
    2020-8-10 00:17
  • 签到天数: 96 天

    [LV.6]常住居民II

    16

    主题

    330

    帖子

    316

    积分

    超级影迷

    Rank: 6Rank: 6

    积分
    316
    发表于 2021-6-21 22:00:51 | 显示全部楼层
    楼主能持续更新不?
    回复

    使用道具 举报

  • TA的每日心情
    开心
    2021-8-13 16:50
  • 签到天数: 34 天

    [LV.5]常住居民I

    0

    主题

    188

    帖子

    170

    积分

    高级影迷

    Rank: 4

    积分
    170
    发表于 2021-6-21 22:20:06 | 显示全部楼层
    喜欢酷漫字幕的特效
    回复

    使用道具 举报

  • TA的每日心情
    擦汗
    11 小时前
  • 签到天数: 308 天

    [LV.8]以坛为家I

    16

    主题

    2637

    帖子

    1031

    积分

    资深影迷

    Rank: 10Rank: 10Rank: 10

    积分
    1031
    发表于 2021-6-21 23:06:51 | 显示全部楼层

    感谢楼主分享
    回复

    使用道具 举报

  • TA的每日心情
    慵懒
    昨天 15:26
  • 签到天数: 507 天

    [LV.9]以坛为家II

    0

    主题

    770

    帖子

    337

    积分

    超级影迷

    Rank: 6Rank: 6

    积分
    337

    小土豪勋章影迷女神

    发表于 2021-6-21 23:08:21 | 显示全部楼层
    期待楼主的持续更新
    回复

    使用道具 举报

  • TA的每日心情
    开心
    11 小时前
  • 签到天数: 197 天

    [LV.7]常住居民III

    17

    主题

    1313

    帖子

    282

    积分

    超级影迷

    Rank: 6Rank: 6

    积分
    282
    发表于 2021-6-21 23:45:16 | 显示全部楼层

    喜欢酷漫字幕的特效
    回复

    使用道具 举报

  • TA的每日心情
    奋斗
    6 天前
  • 签到天数: 271 天

    [LV.8]以坛为家I

    18

    主题

    1600

    帖子

    337

    积分

    超级影迷

    Rank: 6Rank: 6

    积分
    337

    小土豪勋章十二生肖之蛇双鱼座勋章土豪勋章

    发表于 2021-6-22 00:09:15 | 显示全部楼层
    感谢分享感谢分享
    回复

    使用道具 举报

    您需要登录后才可以回帖 登录 | 立即注册

    本版积分规则

    QQ|Archiver|手机版|小黑屋|影迷乐园

    GMT+8, 2021-9-28 11:46 , Processed in 0.113891 second(s), 28 queries .

    Powered by Discuz! X3.4

    Copyright © 2001-2020, Tencent Cloud.

    快速回复 返回顶部 返回列表