请选择 进入手机版 | 继续访问电脑版

YMLY-影迷乐园-特效字幕 蓝光原盘 1080P 高清动漫电影电视剧

 找回密码
 立即注册
搜索
查看: 2653|回复: 68

[日本] [百度][1992-1996][1080P][美少女战士.美少女戦士セーラームーン][辽艺国语.台配.粤语.日语.外挂简中字幕][全五季.200集][87.56GB][MP4][Sailor.Moon.1080p.H265.AAC]

  [复制链接]
  • TA的每日心情
    开心
    2020-2-19 17:31
  • 签到天数: 3 天

    [LV.2]偶尔看看I

    67

    主题

    405

    帖子

    934

    积分

    资深影迷

    Rank: 10Rank: 10Rank: 10

    积分
    934
    发表于 2021-6-27 19:39:08 | 显示全部楼层 |阅读模式


    第一季内封的配音有:辽艺国语 粤语 日语 台配
    第二季内封的配音有:辽艺国语 粤语 日语 台配
    第三季内封的配音有:台配 粤语 日语 英语
    第四季内封的配音有:台配 粤语 日语 英语
    第五季内封的配音有:台配 粤语 日语




    ◎译  名 美少女战士 / Beautiful Girl Soldier Sailormoon / Bishôjo senshi Sêra Mûn / 美少女战士Sailor Moon / 美少女战士第一季 / 美少女戰士初代
    ◎片  名 美少女戦士セーラームーン
    ◎年  代 1992
    ◎产  地 日本
    ◎类  别 喜剧 / 动作 / 爱情 / 动画 / 惊悚 / 奇幻
    ◎语  言 日语
    ◎上映日期 1992-03-07(日本) / 1997-06-01(中国大陆)
    ◎IMDb评分  7.7/10 from 5492 users
    ◎IMDb链接  https://www.imdb.com/title/tt0103369
    ◎豆瓣评分 8.6/10 from 56593 users
    ◎豆瓣链接 https://movie.douban.com/subject/2032236/
    ◎集  数 46
    ◎片  长 30分钟
    ◎导  演 佐藤顺一 Junichi Sato / 几原邦彦 Kunihiko Ikuhara / 宇田钢之助 Kônosuke Uda / 五十岚卓哉 Takuya Igarashi / 竹之内和久 Kazuhisa Takenouchi / 小坂春女 Kosaka Harume / 又野弘道 Matano Hiromichi
    ◎编  剧 武内直子 Naoko Takeuchi / 富田祐弘 Sukehiro Tomita / 柳川茂 Shigeru Yanagawa / 隅泽克之 Katsuyuki Sumizawa
    ◎主  演 三石琴乃 Kotono Mitsuishi
           久川绫 Aya Hisakawa
           富泽美智惠 Michie Tomizawa
           筱原惠美 Emi Shinohara
           深见梨加 Rica Fukami
           古谷彻 Tôru Furuya
           潘惠子 Keiko Han
           荒木香惠 Kae Araki
           小野坂昌也 Masaya Onosaka
           森功至 Katsuji Mori
           难波圭一 Keiichi Nanba
           曾我部和行 Kazuyuki Sogabe
           高木早苗 Sanae Takagi
           佐藤宽子 Hiroko Satô
           置鲇龙太郎 Ryôtarô Okiayu
           绪方惠美 Megumi Ogata
           若本规夫 Norio Wakamoto
           山崎和佳奈 Wakana Yamazaki
           伊藤美纪 Miki Itô
           兵藤真子 Mako Hyôdô
           皆口裕子 Yûko Minaguchi
           胜生真沙子 Masako Katsuki
           平松晶子 Akiko Hiramatsu
           金井美香 Mika Kanai
           西村知道 Tomomichi Nishimura
           阪脩 Osamu Saka
           麻上洋子 Yôko Asagami
           岛田敏 Bin Shimada
           新山志保 Shiho Niiyama
           宫内幸平 Kôhei Miyauchi
           西原久美子 Kumiko Nishihara
           高户靖广 Yasuhiro Takato
           江川央生 Hisao Egawa
           渊崎由里子 Yuriko Fuchizaki
           原惠理子 Eriko Hara
           川岛千代子 Chiyoko Kawashima
           佐佐木优子 Yûko Sasaki
           永泽菜教 Nao Nagasawa
           柿沼紫乃 Shino Kakinuma
           神山雅美 Kamiyama Masami
           青羽美代子 Aoba Miyoko
           大仓正章 Ookura Masaaki
           里内信夫 Satouchi Shinobu
           岛方淳子 Junko Shimakata
           山田真一 Yamada Shinichi
           鹈饲留美子 Rumiko Ukai
           梅津秀行 Hideyuki Umezu
           太田真一郎 Shinichirô Ôta
           佐藤佑晖 Hiroyuki Satô
           三田友子 Yûko Mita
           中尾岩雄 Nakao Michio
           南场千绘子 Chieko Nanba
           柏仓敦 Kashiwakura Tsutomu


    ◎标  签 动画 | 日本 | 美少女战士 | 日本动画 | 童年回忆 | 童年 | 经典 | 动漫

    ◎简  介  

      美丽可爱的月野兔(三石琴乃 配音)是一名正救读初中的女孩,她学业平平,任性娇弱,俨然是生活在大都会普普通通的女孩子们中的平凡一员。可是,在遇到了那只会说话的小猫露娜之后,月野的人生发生天翻地覆的变化。她不仅可以变身成为拥有神奇能力的水手月亮,还渐渐知晓了自己前世今生的秘密。为了保卫地球,挫败黑暗帝国的野心,月野和水野亚美(久川绫 配音)、火野丽(富泽美智惠 配音)、木野真琴(篠原惠美 配音)、爱野美奈子(深见梨加 配音)等人结成美少女战士,与罪恶展开了连番激战,在此过程中,她与命中注定的爱人地场卫(古谷彻 配音)的浪漫恋情也悄然上演……本片根据漫画家武内直子的经典同名原著改编。

    1. General
    2. Complete name                  : Z:\动漫\TV版\美少女戦士セーラームーン (1992)\Season 1\美少女戦士セーラームーン - S01E01 - 泣き虫うさぎの華麗なる変身 - 1080p.h264.AAC.mp4
    3. Format                         : MPEG-4
    4. Format profile                 : Base Media
    5. Codec ID                       : isom (isom/avc1)
    6. File size                      : 452 MiB
    7. Duration                       : 24 min 10 s
    8. Overall bit rate mode          : Variable
    9. Overall bit rate               : 2 614 kb/s
    10. Encoded date                   : UTC 2018-03-05 00:42:11
    11. Tagged date                    : UTC 2018-03-05 00:42:11

    12. Video
    13. ID                             : 1
    14. Format                         : AVC
    15. Format/Info                    : Advanced Video Codec
    16. Format profile                 : High 10@L5
    17. Format settings                : CABAC / 16 Ref Frames
    18. Format settings, CABAC         : Yes
    19. Format settings, Reference fra : 16 frames
    20. Codec ID                       : avc1
    21. Codec ID/Info                  : Advanced Video Coding
    22. Duration                       : 24 min 10 s
    23. Bit rate                       : 2 219 kb/s
    24. Maximum bit rate               : 66.9 Mb/s
    25. Width                          : 1 440 pixels
    26. Height                         : 1 080 pixels
    27. Display aspect ratio           : 4:3
    28. Frame rate mode                : Constant
    29. Frame rate                     : 23.976 (24000/1001) FPS
    30. Color space                    : YUV
    31. Chroma subsampling             : 4:2:0
    32. Bit depth                      : 10 bits
    33. Scan type                      : Progressive
    34. Bits/(Pixel*Frame)             : 0.060
    35. Stream size                    : 384 MiB (85%)
    36. Title                          : 1992美少女战士第一部BD1080P第01集爱哭鬼小兔的华丽变身RIP From Ξ血龍吟д
    37. Writing library                : x264 core 152 r2851 ba24899
    38. Encoding settings              : cabac=1 / ref=16 / deblock=1:0:0 / analyse=0x3:0x113 / me=hex / subme=9 / psy=1 / psy_rd=1.00:0.00 / mixed_ref=1 / me_range=16 / chroma_me=1 / trellis=1 / 8x8dct=1 / cqm=0 / deadzone=21,11 / fast_pskip=1 / chroma_qp_offset=-2 / threads=18 / lookahead_threads=4 / sliced_threads=0 / nr=0 / decimate=1 / interlaced=0 / bluray_compat=0 / constrained_intra=0 / bframes=12 / b_pyramid=2 / b_adapt=2 / b_bias=0 / direct=1 / weightb=1 / open_gop=0 / weightp=2 / keyint=240 / keyint_min=23 / scenecut=40 / intra_refresh=0 / rc_lookahead=40 / rc=abr / mbtree=1 / bitrate=2219 / ratetol=1.0 / qcomp=0.60 / qpmin=0 / qpmax=81 / qpstep=4 / ip_ratio=1.40 / aq=1:1.00
    39. Encoded date                   : UTC 2018-03-05 00:42:11
    40. Tagged date                    : UTC 2018-03-05 00:42:31
    41. Codec configuration box        : avcC

    42. Audio #1
    43. ID                             : 2
    44. Format                         : AAC LC
    45. Format/Info                    : Advanced Audio Codec Low Complexity
    46. Codec ID                       : mp4a-40-2
    47. Duration                       : 24 min 6 s
    48. Bit rate mode                  : Variable
    49. Bit rate                       : 96.0 kb/s
    50. Maximum bit rate               : 107 kb/s
    51. Channel(s)                     : 2 channels
    52. Channel layout                 : L R
    53. Sampling rate                  : 48.0 kHz
    54. Frame rate                     : 46.875 FPS (1024 SPF)
    55. Compression mode               : Lossy
    56. Stream size                    : 16.6 MiB (4%)
    57. Title                          : 辽艺国语
    58. Language                       : Chinese
    59. Encoded date                   : UTC 2018-03-04 08:40:46
    60. Tagged date                    : UTC 2018-03-05 00:42:31

    61. Audio #2
    62. ID                             : 3
    63. Format                         : AAC LC
    64. Format/Info                    : Advanced Audio Codec Low Complexity
    65. Codec ID                       : mp4a-40-2
    66. Duration                       : 24 min 6 s
    67. Bit rate mode                  : Variable
    68. Bit rate                       : 96.0 kb/s
    69. Maximum bit rate               : 116 kb/s
    70. Channel(s)                     : 2 channels
    71. Channel layout                 : L R
    72. Sampling rate                  : 48.0 kHz
    73. Frame rate                     : 46.875 FPS (1024 SPF)
    74. Compression mode               : Lossy
    75. Stream size                    : 16.6 MiB (4%)
    76. Title                          : 粤语
    77. Language                       : Chinese
    78. Encoded date                   : UTC 2018-03-04 08:40:12
    79. Tagged date                    : UTC 2018-03-05 00:42:31

    80. Audio #3
    81. ID                             : 4
    82. Format                         : AAC LC
    83. Format/Info                    : Advanced Audio Codec Low Complexity
    84. Codec ID                       : mp4a-40-2
    85. Duration                       : 24 min 10 s
    86. Bit rate mode                  : Variable
    87. Bit rate                       : 96.0 kb/s
    88. Maximum bit rate               : 112 kb/s
    89. Channel(s)                     : 2 channels
    90. Channel layout                 : L R
    91. Sampling rate                  : 48.0 kHz
    92. Frame rate                     : 46.875 FPS (1024 SPF)
    93. Compression mode               : Lossy
    94. Stream size                    : 16.6 MiB (4%)
    95. Title                          : 日语
    96. Language                       : Japanese
    97. Encoded date                   : UTC 2018-02-26 03:22:44
    98. Tagged date                    : UTC 2018-03-05 00:42:31

    99. Audio #4
    100. ID                             : 5
    101. Format                         : AAC LC
    102. Format/Info                    : Advanced Audio Codec Low Complexity
    103. Codec ID                       : mp4a-40-2
    104. Duration                       : 24 min 6 s
    105. Bit rate mode                  : Variable
    106. Bit rate                       : 96.0 kb/s
    107. Maximum bit rate               : 137 kb/s
    108. Channel(s)                     : 2 channels
    109. Channel layout                 : L R
    110. Sampling rate                  : 48.0 kHz
    111. Frame rate                     : 46.875 FPS (1024 SPF)
    112. Compression mode               : Lossy
    113. Stream size                    : 16.6 MiB (4%)
    114. Title                          : 台配国语
    115. Language                       : Chinese
    116. Encoded date                   : UTC 2018-03-04 08:41:21
    117. Tagged date                    : UTC 2018-03-05 00:42:31

    118. Text
    119. ID                             : 6
    120. Format                         : Timed Text
    121. Codec ID                       : tx3g
    122. Duration                       : 24 min 6 s
    123. Bit rate mode                  : Variable
    124. Bit rate                       : 51 b/s
    125. Stream size                    : 9.04 KiB (0%)
    126. Title                          : 简体中文
    127. Language                       : Chinese
    128. Forced                         : No
    129. Encoded date                   : UTC 2018-03-05 00:42:31
    130. Tagged date                    : UTC 2018-03-05 00:42:31

    复制代码














    购买主题 已有 29 人购买  本主题需向作者支付 150 大洋 才能浏览
    回复

    使用道具 举报

  • TA的每日心情
    开心
    2020-10-27 15:38
  • 签到天数: 5 天

    [LV.2]偶尔看看I

    0

    主题

    1042

    帖子

    178

    积分

    高级影迷

    Rank: 4

    积分
    178
    发表于 2021-6-27 21:23:45 | 显示全部楼层
    挺好的哈哈哈哈
    回复

    使用道具 举报

  • TA的每日心情

    昨天 22:24
  • 签到天数: 114 天

    [LV.6]常住居民II

    2

    主题

    1301

    帖子

    217

    积分

    高级影迷

    Rank: 4

    积分
    217
    发表于 2021-6-27 21:38:17 | 显示全部楼层
    感谢楼主的分享,终于等到了
    回复

    使用道具 举报

  • TA的每日心情

    12 小时前
  • 签到天数: 461 天

    [LV.9]以坛为家II

    4

    主题

    2880

    帖子

    176

    积分

    高级影迷

    Rank: 4

    积分
    176
    发表于 2021-6-27 22:19:30 | 显示全部楼层

    感谢楼主的分享
    回复

    使用道具 举报

  • TA的每日心情
    擦汗
    13 小时前
  • 签到天数: 308 天

    [LV.8]以坛为家I

    16

    主题

    2637

    帖子

    1031

    积分

    资深影迷

    Rank: 10Rank: 10Rank: 10

    积分
    1031
    发表于 2021-6-27 22:24:51 | 显示全部楼层

    非常感谢分享
    回复

    使用道具 举报

  • TA的每日心情
    开心
    昨天 00:11
  • 签到天数: 163 天

    [LV.7]常住居民III

    2

    主题

    1659

    帖子

    195

    积分

    高级影迷

    Rank: 4

    积分
    195
    发表于 2021-6-27 23:03:34 | 显示全部楼层
    谢谢分享!!!!!!!
    回复

    使用道具 举报

  • TA的每日心情
    开心
    2021-9-6 09:16
  • 签到天数: 1 天

    [LV.1]初来乍到

    0

    主题

    115

    帖子

    6

    积分

    入门影迷

    Rank: 1

    积分
    6
    发表于 2021-6-27 23:21:16 | 显示全部楼层
    谢谢!很经典的动漫。
    回复

    使用道具 举报

  • TA的每日心情
    开心
    3 小时前
  • 签到天数: 130 天

    [LV.7]常住居民III

    0

    主题

    1625

    帖子

    152

    积分

    高级影迷

    Rank: 4

    积分
    152
    发表于 2021-6-28 07:02:36 | 显示全部楼层
    不错不错不错不错
    回复

    使用道具 举报

  • TA的每日心情
    擦汗
    4 小时前
  • 签到天数: 129 天

    [LV.7]常住居民III

    38

    主题

    1803

    帖子

    313

    积分

    超级影迷

    Rank: 6Rank: 6

    积分
    313
    发表于 2021-6-28 08:08:28 | 显示全部楼层
    支持高清资源分享
    回复

    使用道具 举报

  • TA的每日心情
    慵懒
    12 小时前
  • 签到天数: 176 天

    [LV.7]常住居民III

    4

    主题

    1856

    帖子

    540

    积分

    专业影迷

    Rank: 8Rank: 8

    积分
    540
    发表于 2021-6-28 09:19:00 | 显示全部楼层
    非常感谢分享哈
    回复

    使用道具 举报

    您需要登录后才可以回帖 登录 | 立即注册

    本版积分规则

    QQ|Archiver|手机版|小黑屋|影迷乐园

    GMT+8, 2021-9-28 13:09 , Processed in 0.102645 second(s), 27 queries .

    Powered by Discuz! X3.4

    Copyright © 2001-2020, Tencent Cloud.

    快速回复 返回顶部 返回列表