请选择 进入手机版 | 继续访问电脑版

YMLY-影迷乐园-特效字幕 蓝光原盘 1080P 高清动漫电影电视剧

 找回密码
 立即注册
搜索
查看: 5796|回复: 280

[美国] [115+百度][1997][泰坦尼克号.白星版][中英字幕][29.36GB][MKV][Titanic.1997.Extended.Fan.Cut.1080p.BluRay.DTS.x264-QNY]

  [复制链接]
  • TA的每日心情
    奋斗
    2020-2-21 00:36
  • 签到天数: 656 天

    [LV.9]以坛为家II

    1万

    主题

    1万

    帖子

    16万

    积分

    超级版主

    与齐同行,是最初的梦想,也是一辈子的执着~

    Rank: 16Rank: 16Rank: 16Rank: 16

    积分
    160015

    内测勋章最佳新人十二生肖之猴VIP包月勋章影迷男神小土豪勋章土豪勋章富甲一方精华勋章金话筒主题达人灌水之王

    发表于 2021-7-6 18:09:56 | 显示全部楼层 |阅读模式
    下载说明:

    百度云网盘分享极其不稳定,如有链接失效,请第一时间站内短消息通知我,上线后会第一时间补发!请大家多多谅解!电驴链接只能115会员离线下载,其它工具都下载不了!




    制作说明:

    1.此资源取自TTG自购原盘,白星版比公映版多了30多分钟,多了29处删减内容以及第二结局,一共3小时47分钟,我个人认为第二结局非常有必要,老年的rose用一些经历来鼓励打捞砖石的船长,不要过于沉迷钱财,不然你往往因为迫切得到而失去的更多,浪费很多无畏的时间,只有生命才是最重要的,让每一天过的有意义,rose自己在最穷困潦倒的时候不靠那颗宝贵的钻石也一样撑过来了,很有激励价值。当年卡神觉得第二结局矛盾,加之公映版为了票房经济效应最大化,无情的砍了这么多刀

    2.原盘中,公映段码率25m,DTS音轨;删减段码率15m,未做修复,画面质量相对较低,只有AC3音轨,差距过大,格式也不同,因此没采用无损剪辑方式,会报错,而是无奈采取了重编码式剪辑,白星完整版为最大程度减少画质流失给了最大渲染深度和最优渲染质量重编码,后期DTS音轨自己制作的,因为肉酱碟,实在无法匹配国配,实属无奈。这版百星版可谓全网质量最佳,看过很多网络版本,都有压制痕迹,参数太低,细节不够完整!

    3.感谢OB管理Alpha和Austen大佬提供技术指导,高码高参,暴力压制,帧帧炮轰!(渲染压制了5天)

    4.中英特效字幕取自字幕库,由本人逐句调教,花费时间不能用小时来衡量,做了精致的注释以及台词解释,内封一条ASS,一条SUP字幕

    5.至于花费差不多半个月时间折腾这个,我只想说,只要大家喜欢并支持,我就觉得值,这部电影不能称之为电影,我觉得这是艺术,是经典,无法超越的巅峰

    6.资源转载于OurBits,本人制作!







    ◎译  名 泰坦尼克号 / 铁达尼号(港 / 台)
    ◎片  名 Titanic
    ◎年  代 1997
    ◎产  地 美国
    ◎类  别 剧情 / 爱情 / 灾难
    ◎语  言 英语 / 意大利语 / 德语 / 俄语
    ◎上映日期 1997-11-01(东京电影节) / 1997-12-19(美国) / 1998-04-03(中国大陆)
    ◎IMDb评分  7.8/10 from 1034314 users
    ◎IMDb链接  https://www.imdb.com/title/tt0120338
    ◎豆瓣评分 9.4/10 from 1614965 users
    ◎豆瓣链接 https://movie.douban.com/subject/1292722/
    ◎片  长 194分钟
    ◎导  演 詹姆斯·卡梅隆 James Cameron
    ◎编  剧 詹姆斯·卡梅隆 James Cameron
    ◎主  演 莱昂纳多·迪卡普里奥 Leonardo DiCaprio
           凯特·温丝莱特 Kate Winslet
           比利·赞恩 Billy Zane
           凯西·贝茨 Kathy Bates
           弗兰西丝·费舍 Frances Fisher
           格劳瑞亚·斯图尔特 Gloria Stuart
           比尔·帕克斯顿 Bill Paxton
           伯纳德·希尔 Bernard Hill
           大卫·沃纳 David Warner
           维克多·加博 Victor Garber
           乔纳森·海德 Jonathan Hyde
           苏茜·爱米斯 Suzy Amis
           刘易斯·阿伯内西 Lewis Abernathy
           尼古拉斯·卡斯柯恩 Nicholas Cascone
           阿那托利·萨加洛维奇 Anatoly M. Sagalevitch
           丹尼·努齐 Danny Nucci
           杰森·贝瑞 Jason Barry
           伊万·斯图尔特 Ewan Stewart
           艾恩·格拉法德 Ioan Gruffudd
           乔纳森·菲利普斯 Jonathan Phillips
           马克·林赛·查普曼 Mark Lindsay Chapman
           理查德·格拉翰 Richard Graham
           保罗·布赖特威尔 Paul Brightwell
           艾瑞克·布里登 Eric Braeden
           夏洛特·查顿 Charlotte Chatton
           博纳德·福克斯 Bernard Fox
           迈克尔·英塞恩 Michael Ensign
           法妮·布雷特 Fannie Brett
           马丁·贾维斯 Martin Jarvis
           罗莎琳·艾尔斯 Rosalind Ayres
           罗切尔·罗斯 Rochelle Rose
           乔纳森·伊万斯-琼斯 Jonathan Evans-Jones
           西蒙·克雷恩 Simon Crane
           爱德华德·弗莱彻 Edward Fletcher
           斯科特·安德森 Scott Anderson
           马丁·伊斯特 Martin East
           克雷格·凯利 Craig Kelly
           格雷戈里·库克 Gregory Cooke
           利亚姆·图伊 Liam Tuohy
           詹姆斯·兰开斯特 James Lancaster
           艾尔莎·瑞雯 Elsa Raven
           卢·帕尔特 Lew Palter
           泰瑞·佛瑞斯塔 Terry Forrestal
           凯文·德·拉·诺伊 Kevin De La Noy
           詹姆斯·卡梅隆 James Cameron
           竹内结子 Yûko Takeuchi
           詹姆斯·霍纳 James Horner
           姜广涛 Guangtao Jiang
           罗恩·多纳基 Ron Donachie
           佐佐木澄江 Sumie Sasaki
           史蒂文·奎里  Steven Quale
           詹妮特·戈德斯坦恩 Jenette Goldstein
           林凡  Van Ling
           Linda Kerns
           马丁·哈伯 Martin Hub
           马丁·莱恩 Martin Laing
           德里克·李 Derek Lea
           保罗·赫伯特 Paul Herbert
           亚历山大·欧文斯 Alexandrea Owens
           Julene Renee
           曲敬国 Jingguo Qu


    ◎标  签 爱情 | 经典 | 灾难 | 浪漫 | 美国 | 感动 | 奥斯卡 | 大片

    ◎简  介  

      1912年4月10日,号称 “世界工业史上的奇迹”的豪华客轮泰坦尼克号开始了自己的处女航,从英国的南安普顿出发驶往美国纽约。富家少女罗丝(凯特•温丝莱特)与母亲及未婚夫卡尔坐上了头等舱;另一边,放荡不羁的少年画家杰克(莱昂纳多·迪卡普里奥)也在码头的一场赌博中赢得了下等舱的船票。罗丝厌倦了上流社会虚伪的生活,不愿嫁给卡尔,打算投海自尽,被杰克救起。很快,美丽活泼的罗丝与英俊开朗的杰克相爱,杰克带罗丝参加下等舱的舞会、为她画像,二人的感情逐渐升温。1912年4月14日,星期天晚上,一个风平浪静的夜晚。泰坦尼克号撞上了冰山,“永不沉没的”泰坦尼克号面临沉船的命运,罗丝和杰克刚萌芽的爱情也将经历生死的考验。

    ◎获奖情况  

      第70届奥斯卡金像奖(1998)
      最佳影片 詹姆斯·卡梅隆 / 乔恩·兰道
      最佳导演 詹姆斯·卡梅隆
      最佳女主角(提名) 凯特·温丝莱特
      最佳女配角(提名) 格劳瑞亚·斯图尔特
      最佳摄影 拉塞尔·卡朋特
      最佳剪辑 詹姆斯·卡梅隆 / 康拉德·巴夫四世 / 理查德·哈里斯
      最佳视觉效果 罗伯特·莱加托 / 马克·A·拉索夫 / 托马斯·L·费希尔 / 迈克尔·坎弗
      最佳音效剪辑 汤姆·贝尔福特 / 克里斯托弗·博伊斯
      最佳音响 嘉里·瑞德斯托姆 / 马克·乌拉诺 / 加里·萨默斯 / 汤姆·约翰逊
      最佳艺术指导 迈克尔·福特 / 彼得·拉蒙特
      最佳服装设计 德博拉·林恩·斯科特
      最佳化妆(提名) 蒂娜·恩肖 / 格雷格·卡农 / 西蒙·汤普森
      剧情片最佳原创配乐 詹姆斯·霍纳
      最佳原创歌曲 詹姆斯·霍纳 / 威尔·詹宁斯

      第55届金球奖(1998)
      电影类 最佳剧情片
      电影类 最佳导演 詹姆斯·卡梅隆
      电影类 剧情片最佳男主角(提名) 莱昂纳多·迪卡普里奥
      电影类 剧情片最佳女主角(提名) 凯特·温丝莱特
      电影类 最佳女配角(提名) 格劳瑞亚·斯图尔特
      电影类 最佳编剧(提名) 詹姆斯·卡梅隆
      电影类 最佳原创配乐 詹姆斯·霍纳
      电影类 最佳原创歌曲 詹姆斯·霍纳 / 威尔·詹宁斯

      第21届日本电影学院奖(1998)
      最佳外语片(提名)

      第26届动画安妮奖(1998)
      最佳动画技术成果

      第18届中国电影金鸡奖(1998)
      最佳外国影片译制奖

      第23届报知映画赏(1998)
      海外作品奖 詹姆斯·卡梅隆

    1. General
    2. Unique ID                                : 184616168844173385585122806533532302661 (0x8AE3C7E12A648639F704EDAE3E6E3D45)
    3. Complete name                            : ~\Titanic.1997.Extended.Fan.Cut.1080p.BluRay.DTS.x264-QNY.mkv
    4. Format                                   : Matroska
    5. Format version                           : Version 4
    6. File size                                : 29.3 GiB
    7. Duration                                 : 3 h 47 min
    8. Overall bit rate                         : 18.5 Mb/s
    9. Encoded date                             : UTC 2021-06-28 02:06:13
    10. Writing application                      : mkvmerge v58.0.0 (‘Supper‘s Ready‘) 64-bit
    11. Writing library                          : libebml v1.4.2 + libmatroska v1.6.4
    12. Attachments                              : 华文楷体斜体英文.TTF / 斜体英文字体.otf / 文鼎粗钢笔行楷.TTF / 迷你简细行楷.TTF

    13. Video
    14. ID                                       : 1
    15. Format                                   : AVC
    16. Format/Info                              : Advanced Video Codec
    17. Format profile                           : High@L4.1
    18. Format settings                          : CABAC / 5 Ref Frames
    19. Format settings, CABAC                   : Yes
    20. Format settings, RefFrames               : 5 frames
    21. Codec ID                                 : V_MPEG4/ISO/AVC
    22. Duration                                 : 3 h 47 min
    23. Bit rate                                 : 16.3 Mb/s
    24. Width                                    : 1 920 pixels
    25. Height                                   : 804 pixels
    26. Display aspect ratio                     : 2.40:1
    27. Frame rate mode                          : Constant
    28. Frame rate                               : 23.976 (24000/1001) FPS
    29. Color space                              : YUV
    30. Chroma subsampling                       : 4:2:0
    31. Bit depth                                : 8 bits
    32. Scan type                                : Progressive
    33. Bits/(Pixel*Frame)                       : 0.440
    34. Stream size                              : 25.8 GiB (88%)
    35. Writing library                          : x264 core 161 r3048+53M 0749c36 t_mod_New [(8 & 10)-bit@all X86_64]
    36. Encoding settings                        : cabac=1 / ref=5 / deblock=1:-3:-3 / analyse=0x3:0x133 / me=tesa / subme=11 / psy=1 / fade_compensate=0.00 / psy_rd=1.10:0.00 / mixed_ref=1 / me_range=64 / chroma_me=1 / trellis=2 / 8x8dct=1 / cqm=0 / deadzone=21,11 / fast_pskip=0 / chroma_qp_offset=-2 / threads=16 / lookahead_threads=4 / sliced_threads=0 / nr=0 / decimate=0 / interlaced=0 / bluray_compat=0 / constrained_intra=0 / fgo=0 / bframes=16 / b_pyramid=2 / b_adapt=2 / b_bias=0 / direct=3 / weightb=1 / open_gop=0 / weightp=2 / keyint=240 / keyint_min=1 / scenecut=40 / intra_refresh=0 / rc_lookahead=80 / rc=crf / mbtree=0 / crf=17.3000 / qcomp=0.63 / qpmin=0:0:0 / qpmax=69:69:69 / qpstep=4 / vbv_maxrate=62500 / vbv_bufsize=78125 / crf_max=0.0 / nal_hrd=none / filler=0 / ip_ratio=1.30 / pb_ratio=1.20 / aq=3:0.73 / aq-sensitivity=10.00 / aq-factor=1.00:1.00:1.00 / aq2=0 / aq3=0
    37. Default                                  : Yes
    38. Forced                                   : No
    39. Color range                              : Limited
    40. Color primaries                          : BT.709
    41. Transfer characteristics                 : BT.709
    42. Matrix coefficients                      : BT.709

    43. Audio #1
    44. ID                                       : 2
    45. Format                                   : DTS
    46. Format/Info                              : Digital Theater Systems
    47. Codec ID                                 : A_DTS
    48. Duration                                 : 3 h 47 min
    49. Bit rate mode                            : Constant
    50. Bit rate                                 : 1 536 kb/s
    51. Channel(s)                               : 6 channels
    52. Channel layout                           : C L R Ls Rs LFE
    53. Sampling rate                            : 48.0 kHz
    54. Frame rate                               : 93.750 FPS (512 SPF)
    55. Bit depth                                : 16 bits
    56. Compression mode                         : Lossy
    57. Stream size                              : 2.44 GiB (8%)
    58. Language                                 : English
    59. Default                                  : Yes
    60. Forced                                   : No

    61. Audio #2
    62. ID                                       : 3
    63. Format                                   : AAC LC
    64. Format/Info                              : Advanced Audio Codec Low Complexity
    65. Codec ID                                 : A_AAC-2
    66. Duration                                 : 3 h 47 min
    67. Bit rate                                 : 637 kb/s
    68. Channel(s)                               : 6 channels
    69. Channel layout                           : C L R Ls Rs LFE
    70. Sampling rate                            : 48.0 kHz
    71. Frame rate                               : 46.875 FPS (1024 SPF)
    72. Compression mode                         : Lossy
    73. Stream size                              : 1.01 GiB (3%)
    74. Language                                 : English
    75. Default                                  : No
    76. Forced                                   : No

    77. Text #1
    78. ID                                       : 4
    79. Format                                   : ASS
    80. Codec ID                                 : S_TEXT/ASS
    81. Codec ID/Info                            : Advanced Sub Station Alpha
    82. Duration                                 : 3 h 42 min
    83. Bit rate                                 : 250 b/s
    84. Count of elements                        : 3487
    85. Compression mode                         : Lossless
    86. Stream size                              : 409 KiB (0%)
    87. Title                                    : Simplified & English [ASS]
    88. Language                                 : Chinese
    89. Default                                  : No
    90. Forced                                   : No

    91. Text #2
    92. ID                                       : 5
    93. Format                                   : PGS
    94. Muxing mode                              : zlib
    95. Codec ID                                 : S_HDMV/PGS
    96. Codec ID/Info                            : Picture based subtitle format used on BDs/HD-DVDs
    97. Duration                                 : 3 h 42 min
    98. Bit rate                                 : 68.7 kb/s
    99. Count of elements                        : 5962
    100. Stream size                              : 109 MiB (0%)
    101. Title                                    : Simplified & English [SUP]
    102. Language                                 : Chinese
    103. Default                                  : Yes
    104. Forced                                   : No
    复制代码










    购买主题 已有 146 人购买  本主题需向作者支付 30 大洋 才能浏览
    郑重声明:
    本人提供的所有影视作品均是在网上搜集,任何涉及商业盈利目的均不得使用,否则产生的一切后果将由您自己承担!
    本人不对本人所发布的任何内容负任何法律责任!该下载内容仅做宽带测试使用,请在下载后24小时内删除。请购买正版!
    本人列出的文件没有保存在本站的服务器上,本人仅负责连接,本人对被传播文件的内容一无所知。
    如侵犯视频原作者或发行商版权,请联系本人删除!
    回复

    使用道具 举报

  • TA的每日心情
    擦汗
    前天 18:36
  • 签到天数: 269 天

    [LV.8]以坛为家I

    9

    主题

    1056

    帖子

    285

    积分

    超级影迷

    Rank: 6Rank: 6

    积分
    285
    发表于 2021-7-6 18:18:20 | 显示全部楼层
    感谢!!!!!!
    回复

    使用道具 举报

  • TA的每日心情
    开心
    半小时前
  • 签到天数: 162 天

    [LV.7]常住居民III

    7

    主题

    1640

    帖子

    211

    积分

    高级影迷

    Rank: 4

    积分
    211
    发表于 2021-7-6 18:47:11 | 显示全部楼层
    支持高清,感谢分享
    回复

    使用道具 举报

  • TA的每日心情
    开心
    3 天前
  • 签到天数: 317 天

    [LV.8]以坛为家I

    0

    主题

    375

    帖子

    117

    积分

    中级影迷

    Rank: 3Rank: 3

    积分
    117
    发表于 2021-7-6 18:52:53 | 显示全部楼层
    多谢楼主的资源
    回复

    使用道具 举报

  • TA的每日心情

    12 小时前
  • 签到天数: 461 天

    [LV.9]以坛为家II

    4

    主题

    2880

    帖子

    176

    积分

    高级影迷

    Rank: 4

    积分
    176
    发表于 2021-7-6 19:10:46 | 显示全部楼层
    多谢楼主的资源
    回复

    使用道具 举报

  • TA的每日心情
    擦汗
    4 小时前
  • 签到天数: 338 天

    [LV.8]以坛为家I

    1

    主题

    837

    帖子

    202

    积分

    高级影迷

    Rank: 4

    积分
    202
    发表于 2021-7-6 19:34:34 | 显示全部楼层
    真是精品。
    回复

    使用道具 举报

  • TA的每日心情

    1 小时前
  • 签到天数: 46 天

    [LV.5]常住居民I

    0

    主题

    197

    帖子

    18

    积分

    入门影迷

    Rank: 1

    积分
    18
    发表于 2021-7-6 19:38:49 | 显示全部楼层
    牛逼啊,这个
    回复

    使用道具 举报

  • TA的每日心情

    4 小时前
  • 签到天数: 283 天

    [LV.8]以坛为家I

    3

    主题

    552

    帖子

    332

    积分

    超级影迷

    Rank: 6Rank: 6

    积分
    332

    小土豪勋章

    发表于 2021-7-6 19:42:21 | 显示全部楼层
    版本太多了  不知是否值得洗版
    回复

    使用道具 举报

  • TA的每日心情
    开心
    2021-9-20 19:06
  • 签到天数: 286 天

    [LV.8]以坛为家I

    0

    主题

    533

    帖子

    152

    积分

    高级影迷

    Rank: 4

    积分
    152
    发表于 2021-7-6 19:43:00 | 显示全部楼层
    支持楼主分享精品
    回复

    使用道具 举报

    该用户从未签到

    0

    主题

    436

    帖子

    141

    积分

    中级影迷

    Rank: 3Rank: 3

    积分
    141
    发表于 2021-7-6 19:59:48 | 显示全部楼层
    感谢楼主分享,谢谢!
    回复

    使用道具 举报

    您需要登录后才可以回帖 登录 | 立即注册

    本版积分规则

    QQ|Archiver|手机版|小黑屋|影迷乐园

    GMT+8, 2021-9-28 13:04 , Processed in 0.095420 second(s), 28 queries .

    Powered by Discuz! X3.4

    Copyright © 2001-2020, Tencent Cloud.

    快速回复 返回顶部 返回列表