请选择 进入手机版 | 继续访问电脑版

YMLY-影迷乐园-特效字幕 蓝光原盘 1080P 高清动漫电影电视剧

 找回密码
 立即注册
搜索
查看: 353|回复: 43

[美国] [百度][1999][8毫米][国英双语..中英字幕][14GB][MKV][8MM.1999.BluRay.1080p.x264.DD&DTS.2Audios]

[复制链接]
  • TA的每日心情
    奋斗
    3 小时前
  • 签到天数: 58 天

    [LV.5]常住居民I

    20

    主题

    135

    帖子

    122

    积分

    中级影迷

    Rank: 3Rank: 3

    积分
    122
    发表于 2021-9-11 15:46:23 | 显示全部楼层 |阅读模式


    导演: 乔·舒马赫
    编剧: 安德鲁·凯文·沃克
    主演: 尼古拉斯·凯奇 / 华金·菲尼克斯 / 詹姆斯·甘多菲尼 / 彼得·斯特曼 / 凯瑟琳·基纳
    类型: 悬疑 / 惊悚 / 犯罪
    制片国家/地区: 美国 / 德国
    语言: 英语
    上映日期: 1999-02-26
    片长: 123 分钟
    又名: 8毫米 / 8厘米感官谋杀案 / 八厘米
    IMDb: tt0134273

    八毫米的剧情简介 · · · · · ·
      一个去世议员的家人无意中发现了议员的一件遗物——一卷8毫米的影片,里面竟然有女孩被虐杀的整个过程,于是交给了一名私家侦探汤姆威勒(Nicolas Cage尼古拉斯•凯奇饰)调查真相。汤姆威勒本来平静的生活开始危机四伏。
      汤姆威勒一步步破解真相的过程,亦是一步步陷入泥潭的过程。但是影片中陌生女子的受虐惨剧在他脑中挥之不去。良心促使他在凶险的真相面前变得无惧。
      但当真相揭露之时,世间的丑恶不堪得令汤姆威勒也陷入了惊恐……

    1. Format                         : Matroska
    2. Format version                 : Version 4
    3. File size                      : 14.0 GiB
    4. Duration                       : 2 h 3 min
    5. Overall bit rate mode          : Variable
    6. Overall bit rate               : 16.3 Mb/s
    7. Encoded date                   : UTC 2021-09-11 05:58:57


    8. Video
    9. ID                             : 1
    10. Format                         : AVC
    11. Format/Info                    : Advanced Video Codec
    12. Format profile                 : High@L4.1
    13. Format settings                : CABAC / 5 Ref Frames
    14. Format settings, CABAC         : Yes
    15. Format settings, ReFrames      : 5 frames
    16. Codec ID                       : V_MPEG4/ISO/AVC
    17. Duration                       : 2 h 3 min
    18. Bit rate                       : 12.5 Mb/s
    19. Width                          : 1 920 pixels
    20. Height                         : 816 pixels
    21. Display aspect ratio           : 2.35:1
    22. Frame rate mode                : Constant
    23. Frame rate                     : 23.976 (24000/1001) FPS
    24. Color space                    : YUV
    25. Chroma subsampling             : 4:2:0
    26. Bit depth                      : 8 bits
    27. Scan type                      : Progressive
    28. Bits/(Pixel*Frame)             : 0.331
    29. Stream size                    : 10.7 GiB (76%)
    30. Title                          : BluRay.1080p.x264-AMIABLE
    31. Writing library                : x264 core 155 r2901 7d0ff22
    32. Encoding settings              : cabac=1 / ref=5 / deblock=1:-3:-3 / analyse=0x3:0x113 / me=umh / subme=8 / psy=1 / psy_rd=1.10:0.00 / mixed_ref=1 / me_range=32 / chroma_me=1 / trellis=2 / 8x8dct=1 / cqm=0 / deadzone=21,11 / fast_pskip=1 / chroma_qp_offset=-2 / threads=18 / lookahead_threads=3 / sliced_threads=0 / nr=0 / decimate=1 / interlaced=0 / bluray_compat=0 / constrained_intra=0 / bframes=3 / b_pyramid=2 / b_adapt=2 / b_bias=0 / direct=3 / weightb=1 / open_gop=0 / weightp=2 / keyint=240 / keyint_min=24 / scenecut=40 / intra_refresh=0 / rc_lookahead=50 / rc=2pass / mbtree=1 / bitrate=12451 / ratetol=1.0 / qcomp=0.60 / qpmin=0 / qpmax=69 / qpstep=4 / cplxblur=20.0 / qblur=0.5 / ip_ratio=1.40 / aq=3:0.75

    33. Audio #1
    34. ID                             : 2
    35. Format                         : AC-3
    36. Format/Info                    : Audio Coding 3
    37. Commercial name                : Dolby Digital
    38. Codec ID                       : A_AC3
    39. Duration                       : 2 h 3 min
    40. Bit rate mode                  : Constant
    41. Bit rate                       : 448 kb/s
    42. Channel(s)                     : 6 channels
    43. Channel layout                 : L R C LFE Ls Rs
    44. Sampling rate                  : 48.0 kHz
    45. Frame rate                     : 31.250 FPS (1536 SPF)
    46. Bit depth                      : 16 bits
    47. Compression mode               : Lossy
    48. Delay relative to video        : 1 s 4 ms
    49. Stream size                    : 395 MiB (3%)
    50. Title                          : 六区国语DD5.1


    51. Audio #2
    52. ID                             : 3
    53. Format                         : DTS XLL
    54. Format/Info                    : Digital Theater Systems
    55. Commercial name                : DTS-HD Master Audio
    56. Codec ID                       : A_DTS
    57. Duration                       : 2 h 3 min
    58. Bit rate mode                  : Variable
    59. Bit rate                       : 3 392 kb/s
    60. Channel(s)                     : 6 channels
    61. Channel layout                 : C L R Ls Rs LFE
    62. Sampling rate                  : 48.0 kHz
    63. Frame rate                     : 93.750 FPS (512 SPF)
    64. Bit depth                      : 24 bits
    65. Compression mode               : Lossless
    66. Delay relative to video        : 1 s 4 ms
    67. Stream size                    : 2.92 GiB (21%)
    68. Title                          : 英语DTSHD5.1
    复制代码


    截图







    链接:https://pan.baidu.com/s/1wrMVS3bZb7ZfVKU2fTF8UQ


    购买主题 已有 10 人购买  本主题需向作者支付 10 大洋 才能浏览
    回复

    使用道具 举报

  • TA的每日心情
    开心
    昨天 00:11
  • 签到天数: 163 天

    [LV.7]常住居民III

    2

    主题

    1659

    帖子

    195

    积分

    高级影迷

    Rank: 4

    积分
    195
    发表于 2021-9-11 17:13:45 | 显示全部楼层
    老经典来了
    回复

    使用道具 举报

  • TA的每日心情
    开心
    3 小时前
  • 签到天数: 342 天

    [LV.8]以坛为家I

    3

    主题

    1060

    帖子

    105

    积分

    中级影迷

    Rank: 3Rank: 3

    积分
    105
    发表于 2021-9-11 17:35:40 | 显示全部楼层
    老经典来了
    回复

    使用道具 举报

  • TA的每日心情
    奋斗
    半小时前
  • 签到天数: 140 天

    [LV.7]常住居民III

    1

    主题

    1543

    帖子

    274

    积分

    超级影迷

    Rank: 6Rank: 6

    积分
    274
    发表于 2021-9-11 17:46:04 | 显示全部楼层
    多谢分享优质资源。
    回复

    使用道具 举报

  • TA的每日心情
    开心
    11 小时前
  • 签到天数: 1011 天

    [LV.10]以坛为家III

    9

    主题

    1683

    帖子

    98

    积分

    中级影迷

    Rank: 3Rank: 3

    积分
    98
    发表于 2021-9-11 18:02:14 | 显示全部楼层
    凯奇少的的比较经典的片子。
    回复

    使用道具 举报

  • TA的每日心情
    无聊
    11 小时前
  • 签到天数: 613 天

    [LV.9]以坛为家II

    98

    主题

    2427

    帖子

    325

    积分

    超级影迷

    Rank: 6Rank: 6

    积分
    325
    发表于 2021-9-11 19:46:45 | 显示全部楼层
    绝对经典,佳作好作
    回复

    使用道具 举报

  • TA的每日心情
    开心
    3 小时前
  • 签到天数: 342 天

    [LV.8]以坛为家I

    3

    主题

    1913

    帖子

    525

    积分

    专业影迷

    Rank: 8Rank: 8

    积分
    525
    发表于 2021-9-11 20:34:14 | 显示全部楼层
    无图无真相
    回复

    使用道具 举报

  • TA的每日心情
    奋斗
    3 小时前
  • 签到天数: 262 天

    [LV.8]以坛为家I

    0

    主题

    796

    帖子

    79

    积分

    中级影迷

    Rank: 3Rank: 3

    积分
    79
    发表于 2021-9-11 22:34:03 | 显示全部楼层
    这片儿总算出了呀
    回复

    使用道具 举报

  • TA的每日心情

    11 小时前
  • 签到天数: 461 天

    [LV.9]以坛为家II

    4

    主题

    2880

    帖子

    176

    积分

    高级影迷

    Rank: 4

    积分
    176
    发表于 2021-9-12 01:03:27 | 显示全部楼层
    很不错的电影啊。
    回复

    使用道具 举报

  • TA的每日心情
    开心
    4 小时前
  • 签到天数: 864 天

    [LV.10]以坛为家III

    39

    主题

    9805

    帖子

    1430

    积分

    资深影迷

    Rank: 10Rank: 10Rank: 10

    积分
    1430
    发表于 2021-9-12 08:49:57 | 显示全部楼层
    嘿嘿,喜欢喜欢!支持。
    回复

    使用道具 举报

    您需要登录后才可以回帖 登录 | 立即注册

    本版积分规则

    QQ|Archiver|手机版|小黑屋|影迷乐园

    GMT+8, 2021-9-28 11:47 , Processed in 0.096928 second(s), 27 queries .

    Powered by Discuz! X3.4

    Copyright © 2001-2020, Tencent Cloud.

    快速回复 返回顶部 返回列表