请选择 进入手机版 | 继续访问电脑版

YMLY-影迷乐园-特效字幕 蓝光原盘 1080P 高清动漫电影电视剧

 找回密码
 立即注册
搜索
查看: 2223|回复: 77

[德国] [115][2009][无耻混蛋][双国配.上译+中英特效字幕][26.87GB][MKV][Inglourious.Basterds.2009.UHD.2160p.x265.10bit.HDR.3Audios.mUHD-FRDS]

  [复制链接]
  • TA的每日心情
    奋斗
    2020-2-21 00:36
  • 签到天数: 656 天

    [LV.9]以坛为家II

    1万

    主题

    1万

    帖子

    28万

    积分

    超级版主

    与齐同行,是最初的梦想,也是一辈子的执着~

    Rank: 16Rank: 16Rank: 16Rank: 16

    积分
    286570

    内测勋章最佳新人十二生肖之猴VIP包月勋章影迷男神小土豪勋章土豪勋章富甲一方精华勋章金话筒主题达人灌水之王

    发表于 2021-10-28 22:02:12 | 显示全部楼层 |阅读模式
    下载说明:

    只能115会员离线下载,其它工具都下载不了,购买前请看清楚,一经出售,一概不退款!


    ----转载自FRDS,感谢压制和原发布人员,特此鸣谢!----


    制作说明:

    1.次世代上译国语来自雪狐狸@cnlang,国配特效字幕和双语特效字幕来自[email protected];六区国语和国配字幕来自MNHD;R3字幕来自字幕库;
    2.UHD压制为洞房不败;
    3.非常感谢诸神的辛苦创作,以上素材若无原作者授权,不可提取二发或他用。
    **更多国语精品音轨与特效字幕请移步国语视界论坛**




    ◎译  名 无耻混蛋/希魔撞正杀人狂(港)/恶棍特工(台)/戴罪立功/无良杂军/无良杂牌军/无良杂种/混蛋野战队
    ◎片  名 Inglourious Basterds
    ◎年  代 2009
    ◎产  地 德国,美国
    ◎类  别 剧情 / 犯罪
    ◎语  言 英语,德语,法语,意大利语
    ◎上映日期 2009-05-20(戛纳电影节) / 2009-08-20(德国)
    ◎豆瓣评分 8.6/10 from 407702 users
    ◎豆瓣链接 https://movie.douban.com/subject/1438652/
    ◎片  长 153分钟
    ◎导  演 昆汀·塔伦蒂诺 Quentin Tarantino
    ◎编  剧 昆汀·塔伦蒂诺 Quentin Tarantino
    ◎主  演 布拉德·皮特 Brad Pitt
           梅拉尼·罗兰 Mélanie Laurent
           克里斯托弗·瓦尔兹 Christoph Waltz
           伊莱·罗斯 Eli Roth
           迈克尔·法斯宾德 Michael Fassbender
           黛安·克鲁格 Diane Kruger
           丹尼尔·布鲁赫 Daniel Brühl
           蒂尔·施威格 Til Schweiger
           哥德昂·布克哈德 Gedeon Burkhard
           雅基·伊多 Jacky Ido
           B·J·诺瓦克 B.J. Novak
           奥玛·杜姆 Omar Doom
           奥古斯特·迪赫 August Diehl
           德尼·梅诺谢 Denis Ménochet
           西尔维斯特·格罗特 Sylvester Groth
           蕾雅·赛杜 Léa Seydoux
           昆汀·塔伦蒂诺 Quentin Tarantino
           塞缪尔·杰克逊 Samuel L. Jackson
           哈威·凯特尔 Harvey Keitel
           朱莉·德赖弗斯 Julie Dreyfus
           肯·杜肯 Ken Duken
           亚历山大·费林 Alexander Fehling
           麦克·梅尔斯 Mike Myers
           克里斯蒂安·贝克尔 Christian Berkel
           罗德·泰勒 Rod Taylor
           雅娜·帕拉斯克 Jana Pallaske
           恩佐·卡斯特拉里 Enzo G. Castellari
           山姆·莱文 Samm Levine
           马丁·乌特克 Martin Wuttke
           保罗·鲁斯特 Paul Rust
           迈克尔·巴考尔 Michael Bacall
           路德格·皮斯特 Ludger Pistor
           赖纳·博克 Rainer Bock
           安娜-索菲·弗兰克 Anne-Sophie Franck
           博·史文森 Bo Svenson
           威尔弗里德·霍赫霍尔丁格 Wilfried Hochholdinger
           阿尔恩特·施韦林·索瑞 Arndt Schwering-Sohnrey
           伊娃·勒鲍 Eva Löbau
           安德烈·彭文 André Penvern
           巴迪·乔·胡克 Buddy Joe Hooker

    ◎标  签 黑色幽默 | 二战 | 美国 | 暴力 | 战争 | 无耻混蛋 | 剧情 | 暴力美学

    ◎简  介

      故事分五章进行。二战中德占法国,德军上校汉斯(克里斯托弗·瓦尔兹 Christoph Waltz 饰)号称“犹太猎人”,在一次屠犹行动中,少女苏珊娜(梅勒尼·劳伦特 Mélanie Laurent 饰)侥幸逃脱。与此同时,八名美国犹太士兵在中尉奥尔多(布拉德·皮特 饰) 的带领下潜入德占法国刺杀德国军人,其行动神出鬼没,手法残忍,对德军造成相当威胁,被称为“杂种”。三年后苏珊娜来到巴黎继承了姑母的电影院,结识了德国战斗英雄,电影《国家荣耀》的主演弗里德里克(丹尼尔·布鲁赫 Daniel Brühl 饰)。对苏珊娜一见钟情的弗里德里克说服德国宣传部长约瑟夫·戈培尔(西尔维斯特·格洛斯 Sylvester Groth 饰)在苏珊娜的影院首映《国家荣耀》,希特勒(马丁·乌特克 Martin Wuttke 饰)本人也将出席。苏珊娜决定借放映之机烧毁影院;而在德国间谍女演员布里奇特(戴安娜·克鲁格 Diane Kruger饰)的安排下,英美联合的刺杀行动“奇诺”也将在首映当晚行动……
      本片被提名2009年戛纳电影节金棕榈奖,获第82届奥斯卡最佳导演、最佳影片等七项提名,并荣获奥斯卡最佳男配角奖(Christoph Waltz)及戛纳电影节最佳男演员奖。

    ◎获奖情况

      第82届奥斯卡金像奖  (2010)
      最佳影片(提名) 劳伦斯·班德
      最佳导演(提名) 昆汀·塔伦蒂诺
      最佳男配角 克里斯托弗·瓦尔兹
      最佳原创剧本(提名) 昆汀·塔伦蒂诺
      最佳摄影(提名) 罗伯特·理查森
      最佳剪辑(提名) 萨利·门克
      最佳混音(提名) 马克·乌拉诺 / 托尼·兰姆伯蒂 / 迈克尔·明克勒
      最佳音效剪辑(提名) 华利·史帝文
      
      第62届戛纳电影节  (2009)
      主竞赛单元金棕榈奖(提名) 昆汀·塔伦蒂诺
      主竞赛单元最佳男演员 克里斯托弗·瓦尔兹
      
      第67届金球奖  (2010)
      电影类最佳剧情片(提名)
      电影类最佳导演(提名) 昆汀·塔伦蒂诺
      电影类最佳男配角 克里斯托弗·瓦尔兹
      电影类最佳编剧(提名) 昆汀·塔伦蒂诺
      
      第19届MTV电影奖  (2010)
      MTV电影奖最佳反派(提名) 克里斯托弗·瓦尔兹
      
      第75届纽约影评人协会奖  (2009)
      最佳导演(提名) 昆汀·塔伦蒂诺
      最佳男配角 克里斯托弗·瓦尔兹
      最佳剧本(提名) 昆汀·塔伦蒂诺
      
      第8届华盛顿影评人协会奖  (2009)
      最佳影片(提名)
      最佳导演(提名) 昆汀·塔伦蒂诺
      最佳男配角 克里斯托弗·瓦尔兹
      最佳原创剧本 昆汀·塔伦蒂诺
      
      第14届圣地亚哥影评人协会奖  (2009)
      最佳影片
      最佳导演 昆汀·塔伦蒂诺
      最佳女配角(提名) 梅拉尼·罗兰
      最佳男配角 克里斯托弗·瓦尔兹
      最佳原创剧本 昆汀·塔伦蒂诺
      最佳摄影(提名) 罗伯特·理查森
      最佳剪辑(提名) 萨利·门克
      最佳艺术指导 大卫·维斯克
      最佳群像表演
      
      第22届芝加哥影评人协会奖  (2009)
      最佳影片(提名)
      最佳导演(提名) 昆汀·塔伦蒂诺
      最佳男配角 克里斯托弗·瓦尔兹
      最佳原创剧本(提名) 昆汀·塔伦蒂诺
      最佳摄影(提名) 罗伯特·理查森
      
      第43届堪萨斯影评人协会奖  (2010)
      最佳男配角 克里斯托弗·瓦尔兹
      最佳原创剧本 昆汀·塔伦蒂诺
      
      第9届凤凰城影评人协会奖  (2009)
      最佳影片
      最佳导演 昆汀·塔伦蒂诺
      最佳男配角 克里斯托弗·瓦尔兹
      最佳群像表演
      
      第18届东南影评人协会奖  (2009)
      最佳男配角 克里斯托弗·瓦尔兹

    1. General
    2. Unique ID                      : 138802877280892378097316176613766146990 (0x686C7636B49349243607673D9EF52BAE)
    3. Format                         : Matroska
    4. Format version                 : Version 4
    5. File size                      : 26.9 GiB
    6. Duration                       : 2 h 33 min
    7. Overall bit rate mode          : Variable
    8. Overall bit rate               : 25.1 Mb/s
    9. Encoded date                   : UTC 2021-10-22 12:46:44
    10. Writing application            : mkvmerge v62.0.0 ('Apollo') 64-bit
    11. Writing library                : libebml v1.4.2 + libmatroska v1.6.4

    12. Video
    13. ID                             : 1
    14. Format                         : HEVC
    15. Format/Info                    : High Efficiency Video Coding
    16. Format profile                 : Main [email protected]@High
    17. HDR format                     : SMPTE ST 2094 App 4, Version 1, HDR10+ Profile B compatible
    18. Codec ID                       : V_MPEGH/ISO/HEVC
    19. Duration                       : 2 h 32 min
    20. Bit rate                       : 18.9 Mb/s
    21. Width                          : 3 840 pixels
    22. Height                         : 2 160 pixels
    23. Display aspect ratio           : 16:9
    24. Frame rate mode                : Constant
    25. Frame rate                     : 23.976 (24000/1001) FPS
    26. Color space                    : YUV
    27. Chroma subsampling             : 4:2:0
    28. Bit depth                      : 10 bits
    29. Bits/(Pixel*Frame)             : 0.095
    30. Stream size                    : 20.2 GiB (75%)
    31. Writing library                : x265 3.3+3-g8f8e332f1+29:[Windows][#Erg`Djh#][@Yuuki] made by @Dongfangbubai
    32. Encoding settings              : rc=crf / crf=18.0000 / qcomp=0.70 / qpstep=4 / stats-write=0 / stats-read=0 / vbv-maxrate=160000 / vbv-bufsize=160000 / vbv-init=0.9 / crf-max=0.0 / crf-min=0.0 / no-lossless / no-cu-lossless / aq-mode=3 / aq-strength=0.80 / cbqpoffs=-3 / crqpoffs=-3 / ipratio=1.40 / pbratio=1.30 / psy-rd=2.00 / psy-rdoq=3.00 / deblock=-1:-1 / ref=5 / limit-refs=0 / no-limit-modes / bframes=8 / b-adapt=2 / bframe-bias=0 / b-pyramid / b-intra / weightp / weightb / min-keyint=23 / max-keyint=240 / rc-lookahead=60 / gop-lookahead=0 / scenecut=40 / hist-scenecut=0 / radl=0 / max-cu-size=32 / min-cu-size=8 / me=3 / subme=4 / merange=25 / rdoq-level=2 / rd=4 / rdpenalty=1 / dynamic-rd=0.00 / no-rd-refine / ----- / no-cutree / no-sao / no-rect / no-amp / no-open-gop / wpp / pmode / pme / no-psnr / no-ssim / nr-intra=0 / nr-inter=0 / no-constrained-intra / no-strong-intra-smoothing / max-tu-size=32 / tu-inter-depth=2 / tu-intra-depth=2 / limit-tu=0 / qg-size=32 / qpmax=69 / qpmin=0 / ----- / cpuid=1176575 / frame-threads=6 / numa-pools=54,- / log-level=2 / input-csp=1 / input-res=3840x2160 / interlace=0 / level-idc=0 / high-tier=1 / uhd-bd=0 / no-allow-non-conformance / repeat-headers / no-aud / hrd / info / hash=0 / no-temporal-layers / lookahead-slices=0 / no-splice / no-intra-refresh / no-ssim-rd / signhide / no-tskip / max-merge=3 / temporal-mvp / no-frame-dup / no-hme / no-analyze-src-pics / no-sao-non-deblock / selective-sao=0 / no-early-skip / no-rskip / no-fast-intra / no-tskip-fast / no-splitrd-skip / zone-count=0 / no-strict-cbr / no-rc-grain / no-const-vbv / sar=0 / overscan=0 / videoformat=5 / range=0 / colorprim=9 / transfer=16 / colormatrix=9 / chromaloc=0 / display-window=0 / master-display=G(13250,34500)B(7500,3000)R(34000,16000)WP(15635,16450)L(10000000,50) / cll=970,478 / min-luma=0 / max-luma=1023 / log2-max-poc-lsb=8 / vui-timing-info / vui-hrd-info / slices=1 / no-opt-qp-pps / no-opt-ref-list-length-pps / no-multi-pass-opt-rps / scenecut-bias=0.05 / hist-threshold=0.01 / no-opt-cu-delta-qp / no-aq-motion / hdr10 / hdr10-opt / no-dhdr10-opt / no-idr-recovery-sei / analysis-reuse-level=0 / analysis-save-reuse-level=0 / analysis-load-reuse-level=0 / scale-factor=0 / refine-intra=0 / refine-inter=0 / refine-mv=1 / refine-ctu-distortion=0 / no-limit-sao / ctu-info=0 / no-lowpass-dct / refine-analysis-type=0 / copy-pic=1 / max-ausize-factor=1.0 / no-dynamic-refine / no-single-sei / no-hevc-aq / no-svt / no-field / qp-adaptation-range=1.00 / no-scenecut-aware-qpconformance-window-offsets / right=0 / bottom=0
    33. Default                        : Yes
    34. Forced                         : No
    35. Color range                    : Limited
    36. Color primaries                : BT.2020
    37. Transfer characteristics       : PQ
    38. Matrix coefficients            : BT.2020 non-constant
    39. Mastering display color primar : Display P3
    40. Mastering display luminance    : min: 0.0050 cd/m2, max: 1000 cd/m2
    41. Maximum Content Light Level    : 970 cd/m2
    42. Maximum Frame-Average Light Le : 478 cd/m2

    43. Audio #1
    44. ID                             : 2
    45. ID in the original source medi : 4352 (0x1100)
    46. Format                         : DTS XLL
    47. Format/Info                    : Digital Theater Systems
    48. Commercial name                : DTS-HD Master Audio
    49. Codec ID                       : A_DTS
    50. Duration                       : 2 h 32 min
    51. Bit rate mode                  : Variable
    52. Bit rate                       : 3 517 kb/s
    53. Channel(s)                     : 6 channels
    54. Channel layout                 : C L R Ls Rs LFE
    55. Sampling rate                  : 48.0 kHz
    56. Frame rate                     : 93.750 FPS (512 SPF)
    57. Bit depth                      : 24 bits
    58. Compression mode               : Lossless
    59. Stream size                    : 3.76 GiB (14%)
    60. Title                          : 原声
    61. Language                       : English
    62. Default                        : Yes
    63. Forced                         : No
    64. Original source medium         : Blu-ray

    65. Audio #2
    66. ID                             : 3
    67. ID in the original source medi : 4355 (0x1103)
    68. Format                         : DTS XLL
    69. Format/Info                    : Digital Theater Systems
    70. Commercial name                : DTS-HD Master Audio
    71. Codec ID                       : A_DTS
    72. Duration                       : 2 h 32 min
    73. Bit rate mode                  : Variable
    74. Bit rate                       : 1 838 kb/s
    75. Channel(s)                     : 6 channels
    76. Channel layout                 : C L R Ls Rs LFE
    77. Sampling rate                  : 48.0 kHz
    78. Frame rate                     : 93.750 FPS (512 SPF)
    79. Bit depth                      : 16 bits
    80. Compression mode               : Lossless
    81. Delay relative to video        : 626 ms
    82. Stream size                    : 1.96 GiB (7%)
    83. Title                          : 东影上译国语
    84. Language                       : Chinese
    85. Default                        : No
    86. Forced                         : No
    87. Original source medium         : Blu-ray

    88. Audio #3
    89. ID                             : 4
    90. Format                         : DTS
    91. Format/Info                    : Digital Theater Systems
    92. Codec ID                       : A_DTS
    93. Duration                       : 2 h 32 min
    94. Bit rate mode                  : Constant
    95. Bit rate                       : 755 kb/s
    96. Channel(s)                     : 6 channels
    97. Channel layout                 : C L R Ls Rs LFE
    98. Sampling rate                  : 48.0 kHz
    99. Frame rate                     : 93.750 FPS (512 SPF)
    100. Bit depth                      : 24 bits
    101. Compression mode               : Lossy
    102. Delay relative to video        : 600 ms
    103. Stream size                    : 826 MiB (3%)
    104. Title                          : 六区国语
    105. Language                       : Chinese
    106. Default                        : No
    107. Forced                         : No

    108. Text #1
    109. ID                             : 5
    110. ID in the original source medi : 4608 (0x1200)
    111. Format                         : PGS
    112. Muxing mode                    : zlib
    113. Codec ID                       : S_HDMV/PGS
    114. Codec ID/Info                  : Picture based subtitle format used on BDs/HD-DVDs
    115. Duration                       : 2 h 27 min
    116. Bit rate                       : 25.8 kb/s
    117. Count of elements              : 2510
    118. Stream size                    : 27.1 MiB (0%)
    119. Title                          : 英文
    120. Language                       : English
    121. Default                        : Yes
    122. Forced                         : No
    123. Original source medium         : Blu-ray

    124. Text #2
    125. ID                             : 6
    126. Format                         : PGS
    127. Muxing mode                    : zlib
    128. Codec ID                       : S_HDMV/PGS
    129. Codec ID/Info                  : Picture based subtitle format used on BDs/HD-DVDs
    130. Duration                       : 2 h 32 min
    131. Bit rate                       : 56.9 kb/s
    132. Count of elements              : 5820
    133. Stream size                    : 62.1 MiB (0%)
    134. Title                          : 上译特效
    135. Language                       : Chinese
    136. Default                        : No
    137. Forced                         : No

    138. Text #3
    139. ID                             : 7
    140. Format                         : PGS
    141. Muxing mode                    : zlib
    142. Codec ID                       : S_HDMV/PGS
    143. Codec ID/Info                  : Picture based subtitle format used on BDs/HD-DVDs
    144. Duration                       : 2 h 28 min
    145. Bit rate                       : 33.1 kb/s
    146. Count of elements              : 3801
    147. Stream size                    : 35.2 MiB (0%)
    148. Title                          : 六区简中
    149. Language                       : Chinese
    150. Default                        : No
    151. Forced                         : No

    152. Text #4
    153. ID                             : 8
    154. Format                         : PGS
    155. Muxing mode                    : zlib
    156. Codec ID                       : S_HDMV/PGS
    157. Codec ID/Info                  : Picture based subtitle format used on BDs/HD-DVDs
    158. Duration                       : 2 h 32 min
    159. Bit rate                       : 69.6 kb/s
    160. Count of elements              : 5789
    161. Stream size                    : 76.0 MiB (0%)
    162. Title                          : 双语特效
    163. Language                       : Chinese
    164. Default                        : No
    165. Forced                         : No

    166. Text #5
    167. ID                             : 9
    168. Format                         : PGS
    169. Muxing mode                    : zlib
    170. Codec ID                       : S_HDMV/PGS
    171. Codec ID/Info                  : Picture based subtitle format used on BDs/HD-DVDs
    172. Duration                       : 2 h 29 min
    173. Bit rate                       : 22.8 kb/s
    174. Count of elements              : 3122
    175. Stream size                    : 24.3 MiB (0%)
    176. Title                          : R3简中
    177. Language                       : Chinese
    178. Default                        : No
    179. Forced                         : No

    180. Menu
    181. 00:00:00.000                   : en:第 01 章
    182. 00:01:51.277                   : en:第 02 章
    183. 00:07:07.051                   : en:第 03 章
    184. 00:21:21.488                   : en:第 04 章
    185. 00:24:13.493                   : en:第 05 章
    186. 00:28:16.569                   : en:第 06 章
    187. 00:30:19.609                   : en:第 07 章
    188. 00:37:57.775                   : en:第 08 章
    189. 00:41:48.589                   : en:第 09 章
    190. 00:48:29.072                   : en:第 10 章
    191. 00:53:54.231                   : en:第 11 章
    192. 01:00:51.105                   : en:第 12 章
    193. 01:04:06.008                   : en:第 13 章
    194. 01:09:25.369                   : en:第 14 章
    195. 01:12:17.833                   : en:第 15 章
    196. 01:19:26.595                   : en:第 16 章
    197. 01:32:55.444                   : en:第 17 章
    198. 01:37:02.900                   : en:第 18 章
    199. 01:43:52.142                   : en:第 19 章
    200. 01:45:38.707                   : en:第 20 章
    201. 01:50:31.291                   : en:第 21 章
    202. 01:57:35.757                   : en:第 22 章
    203. 02:03:39.120                   : en:第 23 章
    204. 02:10:30.739                   : en:第 24 章
    205. 02:16:41.526                   : en:第 25 章
    206. 02:23:11.416                   : en:第 26 章
    207. 02:25:47.947                   : en:第 27 章
    208. 02:29:31.629                   : en:第 28 章
    复制代码




























    购买主题 已有 52 人购买  本主题需向作者支付 50 大洋 才能浏览
    郑重声明:
    本人提供的所有影视作品均是在网上搜集,任何涉及商业盈利目的均不得使用,否则产生的一切后果将由您自己承担!
    本人不对本人所发布的任何内容负任何法律责任!该下载内容仅做宽带测试使用,请在下载后24小时内删除。请购买正版!
    本人列出的文件没有保存在本站的服务器上,本人仅负责连接,本人对被传播文件的内容一无所知。
    如侵犯视频原作者或发行商版权,请联系本人删除!
    回复

    使用道具 举报

  • TA的每日心情
    奋斗
    21 小时前
  • 签到天数: 538 天

    [LV.9]以坛为家II

    34

    主题

    4917

    帖子

    2039

    积分

    稀有影迷

    Rank: 12Rank: 12Rank: 12

    积分
    2039
    发表于 2021-10-28 22:52:09 | 显示全部楼层
    谢谢楼主分享
    回复

    使用道具 举报

  • TA的每日心情
    慵懒
    5 天前
  • 签到天数: 120 天

    [LV.7]常住居民III

    1

    主题

    2396

    帖子

    163

    积分

    高级影迷

    Rank: 4

    积分
    163
    发表于 2021-10-28 23:12:26 | 显示全部楼层
    谢谢楼主分享
    回复

    使用道具 举报

  • TA的每日心情
    慵懒
    21 小时前
  • 签到天数: 677 天

    [LV.9]以坛为家II

    5

    主题

    5293

    帖子

    320

    积分

    超级影迷

    Rank: 6Rank: 6

    积分
    320
    发表于 2021-10-29 00:44:10 | 显示全部楼层
    感谢楼主分享
    回复

    使用道具 举报

  • TA的每日心情
    开心
    昨天 17:49
  • 签到天数: 308 天

    [LV.8]以坛为家I

    1

    主题

    613

    帖子

    89

    积分

    中级影迷

    Rank: 3Rank: 3

    积分
    89
    发表于 2021-10-29 01:14:59 | 显示全部楼层
    感谢分享。
    回复

    使用道具 举报

  • TA的每日心情
    开心
    13 小时前
  • 签到天数: 372 天

    [LV.9]以坛为家II

    0

    主题

    4372

    帖子

    227

    积分

    高级影迷

    Rank: 4

    积分
    227
    发表于 2021-10-29 06:35:31 | 显示全部楼层
    感谢分享好电影。
    回复

    使用道具 举报

  • TA的每日心情
    开心
    4 天前
  • 签到天数: 200 天

    [LV.7]常住居民III

    0

    主题

    519

    帖子

    155

    积分

    高级影迷

    Rank: 4

    积分
    155
    发表于 2021-10-29 07:19:07 | 显示全部楼层
    感谢楼主分享
    回复

    使用道具 举报

  • TA的每日心情
    开心
    昨天 18:45
  • 签到天数: 217 天

    [LV.7]常住居民III

    4

    主题

    740

    帖子

    160

    积分

    高级影迷

    Rank: 4

    积分
    160
    发表于 2021-10-29 08:09:29 | 显示全部楼层
    谢谢分享,感谢
    回复

    使用道具 举报

  • TA的每日心情
    开心
    2022-5-5 10:25
  • 签到天数: 251 天

    [LV.8]以坛为家I

    1

    主题

    504

    帖子

    28

    积分

    初级影迷

    Rank: 2

    积分
    28
    发表于 2021-10-29 08:13:12 | 显示全部楼层
    谢谢楼主分享
    回复

    使用道具 举报

  • TA的每日心情
    开心
    21 小时前
  • 签到天数: 351 天

    [LV.8]以坛为家I

    3

    主题

    3299

    帖子

    434

    积分

    超级影迷

    Rank: 6Rank: 6

    积分
    434

    小土豪勋章

    发表于 2021-10-29 08:13:53 | 显示全部楼层
    谢谢分享                     
    回复

    使用道具 举报

    您需要登录后才可以回帖 登录 | 立即注册

    本版积分规则

    QQ|Archiver|手机版|小黑屋|影迷乐园

    GMT+8, 2022-5-17 21:54 , Processed in 0.152203 second(s), 27 queries .

    Powered by Discuz! X3.4

    Copyright © 2001-2020, Tencent Cloud.

    快速回复 返回顶部 返回列表