请选择 进入手机版 | 继续访问电脑版

YMLY-影迷乐园-特效字幕 蓝光原盘 1080P 高清动漫电影电视剧

 找回密码
 立即注册
搜索
查看: 2976|回复: 157

[韩国] [115+百度][2013][1080P][最佳李纯信][韩语.外挂简中字幕][50集全][MP4][74.8GB][You're.the.Best.Lee.Soon.Shin.2013.Complete.1080p.WEB-DL.AAC.x264-LK]

  [复制链接]
  • TA的每日心情
    奋斗
    2020-2-21 00:36
  • 签到天数: 656 天

    [LV.9]以坛为家II

    1万

    主题

    1万

    帖子

    28万

    积分

    超级版主

    与齐同行,是最初的梦想,也是一辈子的执着~

    Rank: 16Rank: 16Rank: 16Rank: 16

    积分
    286603

    内测勋章最佳新人十二生肖之猴VIP包月勋章影迷男神小土豪勋章土豪勋章富甲一方精华勋章金话筒主题达人灌水之王

    发表于 2022-3-7 22:07:21 | 显示全部楼层 |阅读模式
    下载说明:

    百度云网盘分享极其不稳定,如有链接失效,请第一时间站内短消息通知我,上线后会第一时间补发!




    ◎译  名 最佳李纯信/最佳李顺新/最棒李顺心
    ◎片  名 최고다이순신
    ◎年  代 2013
    ◎产  地 韩国
    ◎类  别 剧情
    ◎语  言 韩语
    ◎上映日期 2013-03-09(韩国)
    ◎IMDb评分  7.4/10 from 230 users
    ◎IMDb链接  https://www.imdb.com/title/tt3250818/
    ◎豆瓣评分 6.7/10 from 4598 users
    ◎豆瓣链接 https://movie.douban.com/subject/21346502/
    ◎集  数 50
    ◎片  长 60分钟
    ◎导  演 尹成植 Seong-sik Yoon
    ◎主  演 李知恩 IU
           李美淑 Mi-suk Lee
           李智勋 Jee-hoon Lee
           刘寅娜 In-na Yoo
           曹政奭 Jeong-seok Cho
           黄民浩 Min-ho Hwang
           Kim Seong-woo  Kim Seong-woo
           黄宝旭 Hwang Bo-wook
           吴超熙 Cho-hee Oh
           孙泰英 Tae-yeong Son
           金容琳 Yong-rim Kim
           金光奎 Kwang-gyu Kim
           郑宇 Woo Jeong
           高周元 Ko Joo-won
           尹镇镐 Yoon Jin Ho

    ◎简  介

      一家三姐妹,大姐二姐都是妈妈聚会时长脸的好谈资,而一到小女儿纯信(李智恩 饰)这,妈妈立马就脸色一变。这就是李纯信目前为止的人生。学习一般,长相一般,运气则不是一般的差,各种简历石沉大海,各种选拔落榜,好不容易找到一个酒店的兼职,又因为意外事故惹到了演艺公司的社长申俊浩(赵政锡 饰)而被辞职。但胜在纯信的内心不是一般的坚强,再大的打击都能一一化解,最终都能神奇的逢凶化吉,而她与俊浩的孽缘则就此展开。
      情感丰富又极其容易相信人的纯信在成长的道路上遇到了不少挫折,而看似一帆风顺的俊浩背后也有不为人知的辛酸往事,二人由最初的芥蒂渐渐了解彼此。而幸福则在不远处等待着这群平凡而善良的人们。

    ◎获奖情况

      第49届百想艺术大赏  (2013)
      电视类最佳人气女演员(提名) 李知恩

    1. General
    2. You're.the.Best.Lee.Soon.Shin.E08.1080p-lk.mp4
    3. Format                         : MPEG-4
    4. Format profile                 : Base Media
    5. Codec ID                       : isom (isom/iso2/avc1/mp41)
    6. File size                      : 1.53 GiB
    7. Duration                       : 1 h 2 min
    8. Overall bit rate mode          : Variable
    9. Overall bit rate               : 3 499 kb/s
    10. Writing application            : Lavf57.72.101

    11. Video
    12. ID                             : 1
    13. Format                         : AVC
    14. Format/Info                    : Advanced Video Codec
    15. Format profile                 : [email protected]
    16. Format settings                : CABAC / 4 Ref Frames
    17. Format settings, CABAC         : Yes
    18. Format settings, Reference fra : 4 frames
    19. Codec ID                       : avc1
    20. Codec ID/Info                  : Advanced Video Coding
    21. Duration                       : 1 h 2 min
    22. Bit rate mode                  : Variable
    23. Bit rate                       : 3 395 kb/s
    24. Maximum bit rate               : 4 500 kb/s
    25. Width                          : 1 920 pixels
    26. Height                         : 1 080 pixels
    27. Display aspect ratio           : 16:9
    28. Frame rate mode                : Constant
    29. Frame rate                     : 29.970 (30000/1001) FPS
    30. Original frame rate            : 29.970 (29970/1000) FPS
    31. Color space                    : YUV
    32. Chroma subsampling             : 4:2:0
    33. Bit depth                      : 8 bits
    34. Scan type                      : Progressive
    35. Bits/(Pixel*Frame)             : 0.055
    36. Stream size                    : 1.48 GiB (97%)
    37. Writing library                : VOLO1.4.1
    38. Codec configuration box        : avcC

    39. Audio
    40. ID                             : 2
    41. Format                         : AAC LC
    42. Format/Info                    : Advanced Audio Codec Low Complexity
    43. Codec ID                       : mp4a-40-2
    44. Duration                       : 1 h 2 min
    45. Bit rate mode                  : Constant
    46. Bit rate                       : 96.0 kb/s
    47. Channel(s)                     : 2 channels
    48. Channel layout                 : L R
    49. Sampling rate                  : 48.0 kHz
    50. Frame rate                     : 46.875 FPS (1024 SPF)
    51. Compression mode               : Lossy
    52. Stream size                    : 42.9 MiB (3%)
    53. Default                        : Yes
    54. Alternate group                : 1
    复制代码












    购买主题 已有 14 人购买  本主题需向作者支付 150 大洋 才能浏览
    郑重声明:
    本人提供的所有影视作品均是在网上搜集,任何涉及商业盈利目的均不得使用,否则产生的一切后果将由您自己承担!
    本人不对本人所发布的任何内容负任何法律责任!该下载内容仅做宽带测试使用,请在下载后24小时内删除。请购买正版!
    本人列出的文件没有保存在本站的服务器上,本人仅负责连接,本人对被传播文件的内容一无所知。
    如侵犯视频原作者或发行商版权,请联系本人删除!
    回复

    使用道具 举报

  • TA的每日心情
    慵懒
    22 小时前
  • 签到天数: 677 天

    [LV.9]以坛为家II

    5

    主题

    5293

    帖子

    320

    积分

    超级影迷

    Rank: 6Rank: 6

    积分
    320
    发表于 2022-3-8 00:03:27 | 显示全部楼层

    谢谢分享   
    回复

    使用道具 举报

  • TA的每日心情
    开心
    前天 10:24
  • 签到天数: 99 天

    [LV.6]常住居民II

    0

    主题

    1013

    帖子

    100

    积分

    中级影迷

    Rank: 3Rank: 3

    积分
    100
    发表于 2022-3-8 00:06:24 | 显示全部楼层
    谢谢分享!!!
    回复

    使用道具 举报

  • TA的每日心情
    擦汗
    12 小时前
  • 签到天数: 244 天

    [LV.8]以坛为家I

    6

    主题

    2996

    帖子

    407

    积分

    超级影迷

    Rank: 6Rank: 6

    积分
    407

    小土豪勋章

    发表于 2022-3-8 00:13:06 | 显示全部楼层
    谢谢分享好资源
    回复

    使用道具 举报

  • TA的每日心情
    奋斗
    3 小时前
  • 签到天数: 70 天

    [LV.6]常住居民II

    2

    主题

    192

    帖子

    73

    积分

    中级影迷

    Rank: 3Rank: 3

    积分
    73
    发表于 2022-3-8 00:17:46 | 显示全部楼层
    画质实在是太赞了!
    回复

    使用道具 举报

  • TA的每日心情
    无聊
    昨天 01:24
  • 签到天数: 63 天

    [LV.6]常住居民II

    0

    主题

    2576

    帖子

    190

    积分

    高级影迷

    Rank: 4

    积分
    190
    发表于 2022-3-8 01:31:08 | 显示全部楼层
    感谢分享好资源
    回复

    使用道具 举报

  • TA的每日心情
    无聊
    14 小时前
  • 签到天数: 210 天

    [LV.7]常住居民III

    4

    主题

    2294

    帖子

    133

    积分

    中级影迷

    Rank: 3Rank: 3

    积分
    133
    发表于 2022-3-8 08:00:03 | 显示全部楼层
    谢谢分享好资源
    回复

    使用道具 举报

  • TA的每日心情
    开心
    13 小时前
  • 签到天数: 720 天

    [LV.9]以坛为家II

    6

    主题

    6182

    帖子

    382

    积分

    超级影迷

    Rank: 6Rank: 6

    积分
    382
    发表于 2022-3-8 08:18:45 | 显示全部楼层
    感谢分享好资源
    回复

    使用道具 举报

  • TA的每日心情
    无聊
    3 小时前
  • 签到天数: 503 天

    [LV.9]以坛为家II

    7

    主题

    5331

    帖子

    690

    积分

    专业影迷

    Rank: 8Rank: 8

    积分
    690
    发表于 2022-3-8 08:36:27 | 显示全部楼层
    感谢楼主的分享
    回复

    使用道具 举报

  • TA的每日心情
    开心
    9 小时前
  • 签到天数: 169 天

    [LV.7]常住居民III

    31

    主题

    1830

    帖子

    400

    积分

    超级影迷

    Rank: 6Rank: 6

    积分
    400

    小土豪勋章

    发表于 2022-3-8 09:30:32 | 显示全部楼层
    谢谢版主分享
    回复

    使用道具 举报

    您需要登录后才可以回帖 登录 | 立即注册

    本版积分规则

    QQ|Archiver|手机版|小黑屋|影迷乐园

    GMT+8, 2022-5-17 22:53 , Processed in 0.098833 second(s), 28 queries .

    Powered by Discuz! X3.4

    Copyright © 2001-2020, Tencent Cloud.

    快速回复 返回顶部 返回列表