请选择 进入手机版 | 继续访问电脑版

YMLY-影迷乐园-特效字幕 蓝光原盘 1080P 高清动漫电影电视剧

 找回密码
 立即注册
搜索
查看: 11575|回复: 37

[日本] [百度][1986][960P][七龙珠][1-153话全][辽艺国配][简中字幕][31.84GB][MKV]

[复制链接]
  • TA的每日心情
    无聊
    2019-4-24 08:53
  • 签到天数: 33 天

    [LV.5]常住居民I

    80

    主题

    128

    帖子

    741

    积分

    版主

    Rank: 8Rank: 8

    积分
    741

    贵族勋章水瓶座勋章

    发表于 2018-4-6 17:05:01 | 显示全部楼层 |阅读模式


    ◎译  名 七龙珠/龙珠
    ◎片  名 ドラゴンボール
    ◎年  代 1986
    ◎产  地 日本
    ◎类  别 喜剧/动画/奇幻/冒险
    ◎语  言 日语
    ◎上映日期 1986-02-26(日本)
    ◎IMDb评分  8.6/10 from 36,093 users
    ◎IMDb链接  http://www.imdb.com/title/tt0088509/
    ◎豆瓣评分 9.0/10 from 40,724 users
    ◎豆瓣链接 https://movie.douban.com/subject/1782006/
    ◎集  数 153
    ◎片  长 25 分钟
    ◎导  演 西尾大介 Daisuke Nishio
    ◎主  演 野泽雅子 Masako Nozawa
          八奈见乘儿 Jôji Yanami
          鹤广美 Hiromi Tsuru

    ◎简  介

      很久很久以前,曾流传着这样一个传说:世界各地散落着七颗龙珠,只要集齐这些珠子,就可召唤出神龙,而神龙可以帮助你实现任何一个愿望。
      住在深山中的小悟空本领高强,偶然的机会他随时尚少女布尔玛走出大山,四处寻找传说中的龙珠。期间碰上好色的鬼仙人与乌龙、一碰女人就面红耳赤的乐平、自大的小和尚克林,经历了各种各样的艰险和奇遇,也惹出一连串爆笑的故事。当然还有许多邪恶的家伙为了满足私欲寻找龙珠,与小悟空他们展开了连番激斗……
      根据鸟山明同名漫画改编。
    1. General
    2. Unique ID                      : 234043340080673030154510741183308205519 (0xB0131B91DF2FB0CDB89D43D0FD278DCF)
    3. Complete name                  : I:\★..(百度云)★\七龙珠\1130 (1).mkv
    4. Format                         : Matroska
    5. Format version                 : Version 4 / Version 2
    6. File size                      : 231 MiB
    7. Duration                       : 24 min 39 s
    8. Overall bit rate               : 1 310 kb/s
    9. Encoded date                   : UTC 2018-02-26 06:19:07
    10. Writing application            : mkvmerge v9.3.1 ('Mask Machine') 32bit
    11. Writing library                : libebml v1.3.4 + libmatroska v1.4.5

    12. Video
    13. ID                             : 1
    14. Format                         : AVC
    15. Format/Info                    : Advanced Video Codec
    16. Format profile                 : High@L3.2
    17. Format settings                : CABAC / 4 Ref Frames
    18. Format settings, CABAC         : Yes
    19. Format settings, ReFrames      : 4 frames
    20. Codec ID                       : V_MPEG4/ISO/AVC
    21. Duration                       : 24 min 39 s
    22. Bit rate                       : 1 000 kb/s
    23. Width                          : 1 280 pixels
    24. Height                         : 960 pixels
    25. Display aspect ratio           : 4:3
    26. Frame rate mode                : Constant
    27. Frame rate                     : 23.976 (24000/1001) FPS
    28. Color space                    : YUV
    29. Chroma subsampling             : 4:2:0
    30. Bit depth                      : 8 bits
    31. Scan type                      : Progressive
    32. Bits/(Pixel*Frame)             : 0.034
    33. Stream size                    : 176 MiB (76%)
    34. Writing library                : x264 core 138 r2358 9e941d1
    35. Encoding settings              : cabac=1 / ref=3 / deblock=1:0:0 / analyse=0x3:0x113 / me=hex / subme=7 / psy=1 / psy_rd=1.00:0.00 / mixed_ref=1 / me_range=16 / chroma_me=1 / trellis=1 / 8x8dct=1 / cqm=0 / deadzone=21,11 / fast_pskip=1 / chroma_qp_offset=-2 / threads=6 / lookahead_threads=1 / sliced_threads=0 / nr=0 / decimate=1 / interlaced=0 / bluray_compat=0 / constrained_intra=0 / bframes=3 / b_pyramid=2 / b_adapt=1 / b_bias=0 / direct=1 / weightb=1 / open_gop=0 / weightp=2 / keyint=240 / keyint_min=23 / scenecut=40 / intra_refresh=0 / rc_lookahead=40 / rc=2pass / mbtree=1 / bitrate=1000 / ratetol=1.0 / qcomp=0.60 / qpmin=0 / qpmax=69 / qpstep=4 / cplxblur=20.0 / qblur=0.5 / ip_ratio=1.40 / aq=1:1.00
    36. Default                        : Yes
    37. Forced                         : No

    38. Audio #1
    39. ID                             : 2
    40. Format                         : AAC
    41. Format/Info                    : Advanced Audio Codec
    42. Format profile                 : HE-AAC / LC
    43. Format settings                : Explicit
    44. Codec ID                       : A_AAC-2
    45. Duration                       : 24 min 39 s
    46. Bit rate                       : 132 kb/s
    47. Channel(s)                     : 2 channels
    48. Channel positions              : Front: L R
    49. Sampling rate                  : 96.0 kHz / 48.0 kHz
    50. Frame rate                     : 46.875 FPS (1024 SPF)
    51. Compression mode               : Lossy
    52. Stream size                    : 23.7 MiB (10%)
    53. Title                          : 辽艺国语
    54. Language                       : Chinese
    55. Default                        : Yes
    56. Forced                         : Yes

    57. Audio #2
    58. ID                             : 3
    59. Format                         : AAC
    60. Format/Info                    : Advanced Audio Codec
    61. Format profile                 : HE-AACv2 / HE-AAC / LC
    62. Format settings                : Implicit
    63. Codec ID                       : A_AAC-2
    64. Duration                       : 24 min 38 s
    65. Bit rate                       : 32.0 kb/s
    66. Channel(s)                     : 2 channels / 1 channel / 1 channel
    67. Channel positions              : Front: L R / Front: C / Front: C
    68. Sampling rate                  : 44.1 kHz / 44.1 kHz / 22.05 kHz
    69. Frame rate                     : 21.533 FPS (1024 SPF)
    70. Compression mode               : Lossy
    71. Stream size                    : 5.64 MiB (2%)
    72. Language                       : English
    73. Default                        : No
    74. Forced                         : No

    75. Audio #3
    76. ID                             : 5
    77. Format                         : AAC
    78. Format/Info                    : Advanced Audio Codec
    79. Format profile                 : LC
    80. Codec ID                       : A_AAC-2
    81. Duration                       : 24 min 38 s
    82. Bit rate                       : 140 kb/s
    83. Channel(s)                     : 2 channels
    84. Channel positions              : Front: L R
    85. Sampling rate                  : 48.0 kHz
    86. Frame rate                     : 46.875 FPS (1024 SPF)
    87. Compression mode               : Lossy
    88. Stream size                    : 24.6 MiB (11%)
    89. Title                          : 日语
    90. Language                       : Japanese
    91. Default                        : No
    92. Forced                         : No

    93. Text
    94. ID                             : 4
    95. Format                         : UTF-8
    96. Codec ID                       : S_TEXT/UTF8
    97. Codec ID/Info                  : UTF-8 Plain Text
    98. Duration                       : 23 min 50 s
    99. Bit rate                       : 31 b/s
    100. Count of elements              : 213
    101. Stream size                    : 5.57 KiB (0%)
    102. Language                       : Chinese
    103. Default                        : Yes
    104. Forced                         : No
    复制代码












    购买主题 已有 25 人购买  本主题需向作者支付 100 大洋 才能浏览
    回复

    使用道具 举报

  • TA的每日心情
    奋斗
    2020-2-21 00:36
  • 签到天数: 656 天

    [LV.9]以坛为家II

    9564

    主题

    1万

    帖子

    7万

    积分

    超级版主

    与齐同行,是最初的梦想,也是一辈子的执着~

    Rank: 16Rank: 16Rank: 16Rank: 16

    积分
    78788

    内测勋章最佳新人十二生肖之猴VIP包月勋章影迷男神小土豪勋章土豪勋章富甲一方精华勋章金话筒主题达人灌水之王

    发表于 2018-4-23 10:48:14 | 显示全部楼层
    童年的回忆,必须收藏
    郑重声明:
    本人提供的所有影视作品均是在网上搜集,任何涉及商业盈利目的均不得使用,否则产生的一切后果将由您自己承担!
    本人不对本人所发布的任何内容负任何法律责任!该下载内容仅做宽带测试使用,请在下载后24小时内删除。请购买正版!
    本人列出的文件没有保存在本站的服务器上,本人仅负责连接,本人对被传播文件的内容一无所知。
    如侵犯视频原作者或发行商版权,请联系本人删除!
    回复

    使用道具 举报

  • TA的每日心情
    开心
    2018-12-4 21:27
  • 签到天数: 1 天

    [LV.1]初来乍到

    0

    主题

    2

    帖子

    21

    积分

    入门影迷

    Rank: 1

    积分
    21
    发表于 2018-12-4 21:29:12 | 显示全部楼层
    谢谢楼主分享
    回复

    使用道具 举报

  • TA的每日心情
    擦汗
    2020-3-17 00:34
  • 签到天数: 251 天

    [LV.8]以坛为家I

    89

    主题

    985

    帖子

    646

    积分

    专业影迷

    Rank: 8Rank: 8

    积分
    646
    发表于 2019-1-10 15:19:44 | 显示全部楼层
    多谢楼主分享
    回复

    使用道具 举报

    该用户从未签到

    0

    主题

    1

    帖子

    20

    积分

    入门影迷

    Rank: 1

    积分
    20
    发表于 2019-4-29 19:26:37 | 显示全部楼层
    找了好久 希望可以顺利下载
    回复

    使用道具 举报

  • TA的每日心情
    开心
    2020-8-10 00:17
  • 签到天数: 96 天

    [LV.6]常住居民II

    16

    主题

    286

    帖子

    223

    积分

    高级影迷

    Rank: 4

    积分
    223
    发表于 2019-5-1 12:47:18 | 显示全部楼层
    刚想买,发现100大洋,,,,,,算了,支持你一下
    郑重声明:
    本人提供的所有影视作品均是在网上搜集,任何涉及商业盈利目的均不得使用,否则产生的一切后果将由您自己承担!
    本人不对本人所发布的任何内容负任何法律责任!该下载内容仅做宽带测试使用,请在下载后24小时内删除。请购买正版!
    本人列出的文件没有保存在本站的服务器上,本人仅负责连接,本人对被传播文件的内容一无所知。
    (翻译过来就是,我不会展示任何涉及本人账号{如115或百度云}的分享)
    回复

    使用道具 举报

  • TA的每日心情
    奋斗
    2020-2-21 00:36
  • 签到天数: 656 天

    [LV.9]以坛为家II

    9564

    主题

    1万

    帖子

    7万

    积分

    超级版主

    与齐同行,是最初的梦想,也是一辈子的执着~

    Rank: 16Rank: 16Rank: 16Rank: 16

    积分
    78788

    内测勋章最佳新人十二生肖之猴VIP包月勋章影迷男神小土豪勋章土豪勋章富甲一方精华勋章金话筒主题达人灌水之王

    发表于 2019-5-21 13:07:09 | 显示全部楼层
    郑重声明:
    本人提供的所有影视作品均是在网上搜集,任何涉及商业盈利目的均不得使用,否则产生的一切后果将由您自己承担!
    本人不对本人所发布的任何内容负任何法律责任!该下载内容仅做宽带测试使用,请在下载后24小时内删除。请购买正版!
    本人列出的文件没有保存在本站的服务器上,本人仅负责连接,本人对被传播文件的内容一无所知。
    如侵犯视频原作者或发行商版权,请联系本人删除!
    回复

    使用道具 举报

  • TA的每日心情
    慵懒
    2019-10-14 23:18
  • 签到天数: 166 天

    [LV.7]常住居民III

    459

    主题

    892

    帖子

    2233

    积分

    管理员

    Rank: 24Rank: 24Rank: 24Rank: 24Rank: 24Rank: 24

    积分
    2233

    版主勋章超版勋章管理员勋章贵族勋章开坛功臣内测勋章影迷男神优秀版主最佳新人VIP年费勋章土豪勋章小土豪勋章

    发表于 2019-5-22 01:07:36 | 显示全部楼层
    回复

    使用道具 举报

    该用户从未签到

    0

    主题

    1

    帖子

    21

    积分

    入门影迷

    Rank: 1

    积分
    21
    发表于 2019-7-1 07:28:07 | 显示全部楼层
    找了好久,希望是我想要的版本,希望默认是辽艺音轨
    回复

    使用道具 举报

    该用户从未签到

    0

    主题

    79

    帖子

    7

    积分

    ★★VIP6★★

    Rank: 22Rank: 22Rank: 22Rank: 22Rank: 22Rank: 22

    积分
    7

    贵族勋章开坛功臣

    发表于 2019-7-12 19:12:00 | 显示全部楼层
    感谢楼主分享
    回复

    使用道具 举报

    您需要登录后才可以回帖 登录 | 立即注册

    本版积分规则

    QQ|Archiver|手机版|小黑屋|影迷乐园

    GMT+8, 2021-3-9 11:46 , Processed in 0.067584 second(s), 27 queries .

    Powered by Discuz! X3.4

    Copyright © 2001-2020, Tencent Cloud.

    快速回复 返回顶部 返回列表