请选择 进入手机版 | 继续访问电脑版

YMLY-影迷乐园-特效字幕 蓝光原盘 1080P 高清动漫电影电视剧

 找回密码
 立即注册
搜索
查看: 3790|回复: 54

[大陆] [百度][2002][576P][李卫当官1][国语中字][徐峥.陈好][30集全][MPG][52.05GB][青海卫视]

[复制链接]
  • TA的每日心情
    奋斗
    2020-2-21 00:36
  • 签到天数: 656 天

    [LV.9]以坛为家II

    5317

    主题

    6522

    帖子

    1万

    积分

    超级版主

    Rank: 16Rank: 16Rank: 16Rank: 16

    积分
    18259

    内测勋章最佳新人十二生肖之猴VIP包月勋章影迷男神小土豪勋章土豪勋章富甲一方精华勋章金话筒主题达人灌水之王

    发表于 2018-4-16 11:00:54 | 显示全部楼层 |阅读模式


    ◎片  名 李卫当官
    ◎年  代 2002
    ◎产  地 中国大陆
    ◎类  别 剧情/喜剧
    ◎语  言 汉语普通话
    ◎豆瓣评分 7.3/10 from 11,351 users
    ◎豆瓣链接 https://movie.douban.com/subject/2310046/
    ◎集  数 30
    ◎片  长 45分钟
    ◎导  演 郑军 Jun Zheng
    ◎主  演 徐峥 Zheng Xu
          陈好 Hao Chen
          唐国强 Guoqiang Tang
          王辉 Hui Wang
          李小燕 Xiaoyan Li
          杨昊飞 Haofei Yang
          焦晃 Huang Jiao
          李倩 Qian Li

    ◎简  介

      故事发生在清朝康熙年间。逃难途中,出身卑微的李卫(徐峥 饰)邂逅岳思盈(陈好 饰)姐弟,他们结伴来到江南。李卫在客栈偷拿微服私访的十三阿哥胤祥(王辉 饰)的宝剑,赶赴县令冯月清(孙宝光 饰)所设法场,救下一群因哄抢粮食即遭处决的灾民,这一切被尾随其后的胤祥和胤禛(唐国强 饰)看在眼中,对他大加赏识,并派他出任苏阳县令。目不识丁的李卫当官伊始闹出不少笑话,但他凭借机智与歪才,惩治了横行一方的恶霸,苏阳百姓对他称赞有加。李卫的功绩传到胤禛耳中,此时正逢西北战乱国库空虚,李卫又被任命为扬州知府,负责查处当地盐商偷税漏税一并惩处贪官。扬州赴任,与盐商的初次交锋让李卫知道了什么叫人外有人天外有天......
    1. General
    2. Complete name                  : L:\★..(电视剧)★\[2002][李卫当官][国语][QHTV~576P~mpg][50.3G]\李卫当官Ⅰ青海卫视源码\李卫当官Ⅰ.QHTV.E18.mpg
    3. Format                         : MPEG-PS
    4. File size                      : 1.74 GiB
    5. Duration                       : 43 min 23 s
    6. Overall bit rate mode          : Variable
    7. Overall bit rate               : 5 735 kb/s
    8. Writing library                : (c) 1998-2007 Womble Multimedia, Inc. / MPEG Video Wizard (04/2007) / Mar 29 2007

    9. Video
    10. ID                             : 224 (0xE0)
    11. Format                         : MPEG Video
    12. Format version                 : Version 2
    13. Format profile                 : Main@Main
    14. Format settings                : BVOP
    15. Format settings, BVOP          : Yes
    16. Format settings, Matrix        : Default
    17. Format settings, GOP           : Variable
    18. Format settings, picture struc : Frame
    19. Duration                       : 43 min 23 s
    20. Bit rate mode                  : Variable
    21. Bit rate                       : 5 397 kb/s
    22. Maximum bit rate               : 6 000 kb/s
    23. Width                          : 720 pixels
    24. Height                         : 576 pixels
    25. Display aspect ratio           : 4:3
    26. Frame rate                     : 25.000 FPS
    27. Standard                       : PAL
    28. Color space                    : YUV
    29. Chroma subsampling             : 4:2:0
    30. Bit depth                      : 8 bits
    31. Scan type                      : Interlaced
    32. Scan order                     : Top Field First
    33. Compression mode               : Lossy
    34. Bits/(Pixel*Frame)             : 0.521
    35. Time code of first frame       : 00:00:00:00
    36. Time code source               : Group of pictures header
    37. GOP, Open/Closed               : Open
    38. GOP, Open/Closed of first fram : Closed
    39. Stream size                    : 1.64 GiB (94%)
    40. Writing library                : (c) 1998-2007 Womble Multimedia, Inc. / MPEG Video Wizard (04/2007) / Mar 29 2007

    41. Audio
    42. ID                             : 192 (0xC0)
    43. Format                         : MPEG Audio
    44. Format version                 : Version 1
    45. Format profile                 : Layer 2
    46. Duration                       : 43 min 23 s
    47. Bit rate mode                  : Constant
    48. Bit rate                       : 224 kb/s
    49. Channel(s)                     : 2 channels
    50. Sampling rate                  : 48.0 kHz
    51. Frame rate                     : 41.667 FPS (1152 SPF)
    52. Compression mode               : Lossy
    53. Stream size                    : 69.5 MiB (4%)

    54. Menu

    复制代码














    购买主题 已有 2 人购买  本主题需向作者支付 80 大洋 才能浏览
    郑重声明:
    本人提供的所有影视作品均是在网上搜集,任何涉及商业盈利目的均不得使用,否则产生的一切后果将由您自己承担!
    本人不对本人所发布的任何内容负任何法律责任!该下载内容仅做宽带测试使用,请在下载后24小时内删除。请购买正版!
    本人列出的文件没有保存在本站的服务器上,本人仅负责连接,本人对被传播文件的内容一无所知。
    如侵犯视频原作者或发行商版权,请联系本人删除!
    回复

    使用道具 举报

  • TA的每日心情
    无聊
    2019-4-24 08:53
  • 签到天数: 33 天

    [LV.5]常住居民I

    80

    主题

    128

    帖子

    386

    积分

    版主

    Rank: 8Rank: 8

    积分
    386

    贵族勋章水瓶座勋章

    发表于 2018-10-3 12:40:11 | 显示全部楼层
    小时候很喜欢的一部剧,收藏了
    回复

    使用道具 举报

  • TA的每日心情
    擦汗
    2020-3-17 00:34
  • 签到天数: 251 天

    [LV.8]以坛为家I

    89

    主题

    940

    帖子

    253

    积分

    超级影迷

    Rank: 6Rank: 6

    积分
    253
    发表于 2019-1-13 00:11:19 | 显示全部楼层
    多谢楼主分享
    回复

    使用道具 举报

  • TA的每日心情
    奋斗
    9 小时前
  • 签到天数: 171 天

    [LV.7]常住居民III

    1

    主题

    226

    帖子

    29

    积分

    初级影迷

    Rank: 2

    积分
    29
    发表于 2019-1-31 15:33:26 | 显示全部楼层
    喜欢徐峥的剧集好久了
    回复

    使用道具 举报

  • TA的每日心情
    开心
    2020-3-25 21:55
  • 签到天数: 116 天

    [LV.6]常住居民II

    1

    主题

    972

    帖子

    138

    积分

    中级影迷

    Rank: 3Rank: 3

    积分
    138
    发表于 2019-5-6 23:10:54 | 显示全部楼层
    这个不错。
    回复

    使用道具 举报

  • TA的每日心情
    奋斗
    12 小时前
  • 签到天数: 336 天

    [LV.8]以坛为家I

    33

    主题

    3868

    帖子

    373

    积分

    超级影迷

    Rank: 6Rank: 6

    积分
    373
    发表于 2019-5-14 08:35:09 | 显示全部楼层
    好像不是太清晰啊
    回复

    使用道具 举报

  • TA的每日心情
    奋斗
    2020-1-23 22:24
  • 签到天数: 153 天

    [LV.7]常住居民III

    0

    主题

    517

    帖子

    169

    积分

    高级影迷

    Rank: 4

    积分
    169
    发表于 2019-5-18 21:16:09 | 显示全部楼层
    徐峥拍的影视剧都不错挺喜欢的
    回复

    使用道具 举报

  • TA的每日心情
    慵懒
    4 天前
  • 签到天数: 96 天

    [LV.6]常住居民II

    2

    主题

    536

    帖子

    96

    积分

    中级影迷

    Rank: 3Rank: 3

    积分
    96
    发表于 2019-7-11 08:52:19 | 显示全部楼层
    强烈支持楼主
    回复

    使用道具 举报

  • TA的每日心情
    开心
    8 小时前
  • 签到天数: 210 天

    [LV.7]常住居民III

    80

    主题

    836

    帖子

    212

    积分

    高级影迷

    Rank: 4

    积分
    212
    发表于 2019-8-2 07:14:34 | 显示全部楼层
    很喜欢的演员 感谢分享
    回复

    使用道具 举报

  • TA的每日心情
    开心
    2019-10-6 09:29
  • 签到天数: 39 天

    [LV.5]常住居民I

    0

    主题

    476

    帖子

    54

    积分

    初级影迷

    Rank: 2

    积分
    54
    发表于 2019-8-13 19:27:59 | 显示全部楼层
    谢谢分享!
    回复

    使用道具 举报

    您需要登录后才可以回帖 登录 | 立即注册

    本版积分规则

    QQ|Archiver|手机版|小黑屋|影迷乐园  

    GMT+8, 2020-4-2 20:44 , Processed in 0.155764 second(s), 33 queries .

    Powered by Discuz! X3.3

    © 2001-2017 Comsenz Inc.

    快速回复 返回顶部 返回列表