请选择 进入手机版 | 继续访问电脑版

YMLY-影迷乐园-特效字幕 蓝光原盘 1080P 高清动漫电影电视剧

 找回密码
 立即注册
搜索
查看: 654|回复: 74

[美国] [115+百度][2011-2020][1080P][无耻之徒.无耻家庭S01-S11.全十一季][中英硬字幕][MKV][273.05GB][Sh[email protected]FRDS]

  [复制链接]
  • TA的每日心情
    奋斗
    2020-2-21 00:36
  • 签到天数: 656 天

    [LV.9]以坛为家II

    1万

    主题

    1万

    帖子

    28万

    积分

    超级版主

    与齐同行,是最初的梦想,也是一辈子的执着~

    Rank: 16Rank: 16Rank: 16Rank: 16

    积分
    286572

    内测勋章最佳新人十二生肖之猴VIP包月勋章影迷男神小土豪勋章土豪勋章富甲一方精华勋章金话筒主题达人灌水之王

    发表于 2022-4-28 23:53:07 | 显示全部楼层 |阅读模式
    这个版本我记得是发过的,但是今天看到站里有朋友求搜了一下才发现没有,难道是记忆错乱了!
    字幕是硬字幕的,适合网盘在线看,但为了防止百度云和谐打包上传的,所以你如果是想要在线看的话只能是先从百度云上下载下来再自己传一遍,115是视频文件,可直接在线观看~


    下载说明:

    百度云网盘分享极其不稳定,如有链接失效,请第一时间站内短消息通知我,上线后会第一时间补发!


    ----转载自FRDS,感谢压制和原发布人员,特此鸣谢!----



    ◎译  名 无耻之徒(美版)/无耻家庭(美版)
    ◎片  名 Shameless
    ◎年  代 2011
    ◎产  地 美国
    ◎类  别 剧情/喜剧/家庭
    ◎语  言 英语
    ◎上映日期 2011-01-09(美国)
    ◎IMDb评分  8.6/10 from 206,485 users
    ◎IMDb链接  https://www.imdb.com/title/tt1586680/
    ◎豆瓣评分 9.3/10 from 83,344 users
    ◎豆瓣链接 https://movie.douban.com/subject/4729738/
    ◎片  长 55分钟
    ◎导  演 Mark Mylod
    ◎主  演 威廉姆·H·梅西 William H. Macy
          埃米·罗森 Emmy Rossum
          贾斯汀·查特文 Justin Chatwin
          卡梅隆·莫纳汉 Cameron Monaghan
          杰瑞米·艾伦·怀特 Jeremy Allen White
          伊森·卡特科斯基 Ethan Cutkosky
          珊诺拉·汉普顿 Shanola Hampton
          史蒂夫·豪威 Steve Howey
          劳拉·威金斯 Laura Wiggins
          琼·库萨克 Joan Cusack
          艾玛·肯尼 Emma Kenney
          詹妮弗·莫里森 Jennifer Morrison

    ◎简  介

      本剧根据英国同名剧集改编。 本剧主演 William H. Macy 曾获得艾美奖。 拥有有六个孩子的单身父亲 Frank(威廉姆·H·梅西 William H. Macy 饰)和孩子们生活在周围到处是酒鬼、乞丐和罪犯的最底层社区。他收入不高,整天酗酒,根本不管儿女们的死活,不到20岁的大女儿 Fiona(埃米·罗森 Emmy Rossum 饰)不得不承担起照顾五个弟妹以及养家糊口的责任。跨过宿醉的父亲的身体争抢着偷来的早餐;凌晨4点大开着摇滚乐狂欢;纵容邻居在他们的楼梯上做爱;这个热闹非凡的家庭忙碌、自由、无法无天、充满冒险。他们拥有的不多,但他们懂得生活中最重要的是什么……

    ◎影   评

    当初不过随意点进去第一集,就停不下来,是爽剧,有血有泪,也充斥着直面惨淡生活的勇气。

    限制级美剧无耻之徒翻拍自同名英剧,是showtime的收费节目,所以可以看到黄暴毒重口味元素,啪啪啪场景,SM,乱伦,3P,吸毒,偷摸拐骗,杀人犯火,同性恋,变性人,精神病患者,信手拈来,这是他们的日常。这部剧看下来最大的感受是想酗酒,想点烟,一根接一根,理智让我不能快意人生。

    该剧主要讲一家来自美国底层的八口之家——Gallegar一家,在芝加哥南区的贫民窟里发生的故事。

    ~~~~~~~~~~~~~~~~~~~~
    酗酒成性,无缝不插地找寻骗钱机会的老爹Frank

    得了狂暴抑郁症,双性恋的老妈Monika;

    10岁不到就开始养家的大姐Fiona;

    南区炮王大哥Philip;

    同性恋兼狂暴抑郁症患者Ian;

    高一就成为单身妈妈的Debbi;

    人狠话不多卡神Carl;亲生黑人小儿子liam。

    还有隔壁邻居近亲婚姻产物Kevin;以及Kevin妻子V。

    ~~~~~~~~~~~~~~~~~~~~

    这部剧里每个角色的塑造都是成功的,我们是站在上帝视角看他们,我们觉得他们干了很多蠢事,把生活搞砸,但,不都是可以理解的吗?

    我们也是剧中的他们。人,怎么能当下判断做的事情对错与否,只有时间知道。没有人可以预测未来,即便是下一秒  生而为人,大家都是第一次。

    我曾经也害怕,也怕结果无法承受,怕自己输不起。面对自己的欲望,睁大了双眼,咬紧了牙关,拼尽了全力。

    生活还是照样在我奋不顾身,抑扬顿挫的脸上噗噗拉屎,留下每一丝发缕都散发着臭气,在风中泪流干,只剩下一副空空躯壳的我。

    但,还是要用毛巾擦干屎,喷上清新剂,涂上最艳丽的口红,对着镜子里的自己笑一笑,说自己是世界上最美的姑娘,然后大步向前迈。

    People fuck up. That is life. 人都有栽跟头的时候,这就是生活。

    无耻之徒给我最大的一个感受就是,人生从来不易,从来都不。但是最差也就是如此了,怕什么妖魔鬼怪,怕什么输不起。不过人生过场,笑一笑,有什么大不了。还有一群比你我他更惨更惨的人,但比我们更勇敢地对抗这操蛋的世界。

    (来自豆瓣)

    ◎获奖情况

      第23届金卫星奖(2019)
      电视部门 音乐/喜剧类剧集最佳男主角(提名) 威廉姆·H·梅西

      第5届豆瓣电影年度榜单(2018)
      评分最高的英美剧(非新剧)

    1. General
    2. Unique ID                      : 337222095104508708751620274134025466346 (0xFDB29CF34652DE6BFF4899411ACF71EA)
    3. [email protected]RDS\[email protected]
    4. Format                         : Matroska
    5. Format version                 : Version 4
    6. File size                      : 2.08 GiB
    7. Duration                       : 52 min 46 s
    8. Overall bit rate               : 5 631 kb/s
    9. Writing application            : ShanaEncoder
    10. Writing library                : ShanaEncoder
    11. ErrorDetectionType             : Per level 1

    12. Video
    13. ID                             : 1
    14. Format                         : HEVC
    15. Format/Info                    : High Efficiency Video Coding
    16. Format profile                 : Main [email protected]@Main
    17. Codec ID                       : V_MPEGH/ISO/HEVC
    18. Duration                       : 52 min 46 s
    19. Bit rate                       : 4 879 kb/s
    20. Width                          : 1 920 pixels
    21. Height                         : 1 080 pixels
    22. Display aspect ratio           : 16:9
    23. Frame rate mode                : Constant
    24. Frame rate                     : 23.976 (24000/1001) FPS
    25. Color space                    : YUV
    26. Chroma subsampling             : 4:2:0
    27. Bit depth                      : 10 bits
    28. Bits/(Pixel*Frame)             : 0.098
    29. Stream size                    : 1.80 GiB (87%)
    30. Writing library                : x265 2.4+37-e75d5f5eeae3:[Windows][GCC 4.9.2][64 bit] 10bit
    31. Encoding settings              : cpuid=1173503 / frame-threads=2 / wpp / no-pmode / no-pme / no-psnr / no-ssim / log-level=2 / input-csp=1 / input-res=1920x1080 / interlace=0 / total-frames=0 / level-idc=0 / high-tier=1 / uhd-bd=0 / ref=3 / no-allow-non-conformance / no-repeat-headers / annexb / no-aud / no-hrd / info / hash=0 / no-temporal-layers / open-gop / min-keyint=23 / keyint=250 / bframes=4 / b-adapt=2 / b-pyramid / bframe-bias=0 / rc-lookahead=20 / lookahead-slices=6 / scenecut=40 / no-intra-refresh / ctu=64 / min-cu-size=8 / no-rect / no-amp / max-tu-size=32 / tu-inter-depth=1 / tu-intra-depth=1 / limit-tu=0 / rdoq-level=0 / dynamic-rd=0.00 / no-ssim-rd / signhide / no-tskip / nr-intra=0 / nr-inter=0 / no-constrained-intra / strong-intra-smoothing / max-merge=2 / limit-refs=3 / no-limit-modes / me=1 / subme=2 / merange=57 / temporal-mvp / weightp / no-weightb / no-analyze-src-pics / deblock=0:0 / sao / no-sao-non-deblock / rd=3 / no-early-skip / rskip / no-fast-intra / no-tskip-fast / no-cu-lossless / no-b-intra / rdpenalty=0 / psy-rd=0.00 / psy-rdoq=0.00 / no-rd-refine / analysis-mode=0 / no-lossless / cbqpoffs=0 / crqpoffs=0 / rc=abr / bitrate=5000 / qcomp=0.60 / qpstep=4 / stats-write=0 / stats-read=0 / ipratio=1.40 / pbratio=1.30 / aq-mode=2 / aq-strength=1.00 / cutree / zone-count=0 / no-strict-cbr / qg-size=32 / no-rc-grain / qpmax=69 / qpmin=0 / sar=1 / overscan=0 / videoformat=5 / range=0 / colorprim=2 / transfer=2 / colormatrix=2 / chromaloc=0 / display-window=0 / max-cll=0,0 / min-luma=0 / max-luma=1023 / log2-max-poc-lsb=8 / vui-timing-info / vui-hrd-info / slices=1 / opt-qp-pps / opt-ref-list-length-pps / no-multi-pass-opt-rps / scenecut-bias=0.05 / no-opt-cu-delta-qp / no-aq-motion / no-hdr / no-hdr-opt / no-dhdr10-opt / refine-level=5 / scale-factor=0 / refine-intra=0 / refine-inter=0 / refine-mv=0 / no-limit-sao / ctu-info=0
    32. Default                        : Yes
    33. Forced                         : No

    34. Audio
    35. ID                             : 2
    36. Format                         : AC-3
    37. Format/Info                    : Audio Coding 3
    38. Commercial name                : Dolby Digital
    39. Codec ID                       : A_AC3
    40. Duration                       : 52 min 46 s
    41. Bit rate mode                  : Constant
    42. Bit rate                       : 640 kb/s
    43. Channel(s)                     : 6 channels
    44. Channel layout                 : L R C LFE Ls Rs
    45. Sampling rate                  : 48.0 kHz
    46. Frame rate                     : 31.250 FPS (1536 SPF)
    47. Bit depth                      : 16 bits
    48. Compression mode               : Lossy
    49. Stream size                    : 242 MiB (11%)
    50. Service kind                   : Complete Main
    51. Default                        : Yes
    52. Forced                         : No
    复制代码












    购买主题 已有 22 人购买  本主题需向作者支付 330 大洋 才能浏览
    郑重声明:
    本人提供的所有影视作品均是在网上搜集,任何涉及商业盈利目的均不得使用,否则产生的一切后果将由您自己承担!
    本人不对本人所发布的任何内容负任何法律责任!该下载内容仅做宽带测试使用,请在下载后24小时内删除。请购买正版!
    本人列出的文件没有保存在本站的服务器上,本人仅负责连接,本人对被传播文件的内容一无所知。
    如侵犯视频原作者或发行商版权,请联系本人删除!
    回复

    使用道具 举报

  • TA的每日心情
    慵懒
    21 小时前
  • 签到天数: 677 天

    [LV.9]以坛为家II

    5

    主题

    5293

    帖子

    320

    积分

    超级影迷

    Rank: 6Rank: 6

    积分
    320
    发表于 2022-4-29 00:19:56 | 显示全部楼层
    感谢楼主分享
    回复

    使用道具 举报

  • TA的每日心情
    开心
    12 分钟前
  • 签到天数: 404 天

    [LV.9]以坛为家II

    4

    主题

    3367

    帖子

    1122

    积分

    资深影迷

    Rank: 10Rank: 10Rank: 10

    积分
    1122
    发表于 2022-4-29 00:36:30 来自手机 | 显示全部楼层
    感谢分享哈
    回复

    使用道具 举报

  • TA的每日心情
    开心
    半小时前
  • 签到天数: 39 天

    [LV.5]常住居民I

    7

    主题

    372

    帖子

    123

    积分

    中级影迷

    Rank: 3Rank: 3

    积分
    123
    发表于 2022-4-29 00:41:25 | 显示全部楼层

    感谢楼主分享
    回复

    使用道具 举报

  • TA的每日心情
    开心
    10 小时前
  • 签到天数: 419 天

    [LV.9]以坛为家II

    0

    主题

    934

    帖子

    54

    积分

    初级影迷

    Rank: 2

    积分
    54
    发表于 2022-4-29 01:17:16 | 显示全部楼层
    感谢大佬分享好资源
    回复

    使用道具 举报

  • TA的每日心情
    郁闷
    2022-2-28 20:25
  • 签到天数: 1 天

    [LV.1]初来乍到

    0

    主题

    993

    帖子

    155

    积分

    高级影迷

    Rank: 4

    积分
    155

    开坛功臣

    发表于 2022-4-29 02:32:28 | 显示全部楼层
    感谢楼主分享
    回复

    使用道具 举报

  • TA的每日心情
    开心
    14 小时前
  • 签到天数: 68 天

    [LV.6]常住居民II

    5

    主题

    577

    帖子

    52

    积分

    初级影迷

    Rank: 2

    积分
    52
    发表于 2022-4-29 06:07:18 来自手机 | 显示全部楼层
    很好很强大
    回复

    使用道具 举报

  • TA的每日心情
    开心
    昨天 07:47
  • 签到天数: 13 天

    [LV.3]偶尔看看II

    0

    主题

    179

    帖子

    14

    积分

    入门影迷

    Rank: 1

    积分
    14
    发表于 2022-4-29 07:11:06 | 显示全部楼层
    谢谢楼主分享
    回复

    使用道具 举报

  • TA的每日心情
    开心
    昨天 10:39
  • 签到天数: 265 天

    [LV.8]以坛为家I

    8

    主题

    2887

    帖子

    232

    积分

    高级影迷

    Rank: 4

    积分
    232
    发表于 2022-4-29 07:49:17 | 显示全部楼层
    好电影推荐
    回复

    使用道具 举报

  • TA的每日心情
    开心
    9 小时前
  • 签到天数: 169 天

    [LV.7]常住居民III

    31

    主题

    1830

    帖子

    400

    积分

    超级影迷

    Rank: 6Rank: 6

    积分
    400

    小土豪勋章

    发表于 2022-4-29 08:25:27 | 显示全部楼层
    谢谢版主分享
    回复

    使用道具 举报

    您需要登录后才可以回帖 登录 | 立即注册

    本版积分规则

    QQ|Archiver|手机版|小黑屋|影迷乐园

    GMT+8, 2022-5-17 22:02 , Processed in 0.096619 second(s), 28 queries .

    Powered by Discuz! X3.4

    Copyright © 2001-2020, Tencent Cloud.

    快速回复 返回顶部 返回列表