请选择 进入手机版 | 继续访问电脑版

YMLY-影迷乐园-特效字幕 蓝光原盘 1080P 高清动漫电影电视剧

 找回密码
 立即注册
搜索
查看: 742|回复: 54

[修复版] [百度][1998][1080p][天浴][独家修复版][内封简中字幕][6.19GB][MKV][The Sent-Down Girl.1998.AI.1080p.DVD5.x264.AC3-Milton]

[复制链接]
  • TA的每日心情
    奋斗
    2022-6-7 19:43
  • 签到天数: 82 天

    [LV.6]常住居民II

    72

    主题

    2116

    帖子

    1431

    积分

    资深影迷

    Rank: 10Rank: 10Rank: 10

    积分
    1431

    小土豪勋章土豪勋章

    发表于 2022-4-30 16:03:46 | 显示全部楼层 |阅读模式
    ---修复用到的源文件为D5原盘,字幕来源于字幕库---
    ---因为原盘是隔行扫描,修复出来已经反交错处理过了,有试过先进行反交错处理,
    再进行修复,但修复的效果不好,和拿原盘直接修复比观感明显要差,简直费力不讨好,
    但原盘直修的弊端就是有的画面反交错没处理完全,极少数帧会有残留,一些运动场景
    能看得出来,总的来说利大于弊,最后凭观感留下了此版本---
    ---恐怖的年代,真庆幸自己没经历过那个年代,这种电影看了之后内心会很压抑---
    ---本次修复后,画质提升观感自我评分7分(满分10分)---

    文件名:天浴.The Sent-Down Girl.1998.AI.1080p.DVD5.x264.AC3-Milton


    ◎译  名 Xiu Xiu: The Sent-Down Girl / The Sent-Down Girl
    ◎片  名 天浴
    ◎年  代 1998
    ◎产  地 中国香港 / 美国 / 中国台湾
    ◎类  别 剧情
    ◎语  言 汉语普通话 / 四川话
    ◎上映日期 1998-02-19 / 2000-11-16(中国香港)
    ◎豆瓣评星 ★★★★☆
    ◎豆瓣评分 8.4/10 from 75,229 users
    ◎豆瓣链接 https://movie.douban.com/subject/1302836/
    ◎片  长 99分钟
    ◎导  演 陈冲 / Joan Chen
    ◎演  员 李小璐 / Xiaolu Li | 饰 文秀
          洛桑群培 / Lopsang | 饰 老金
          钱正 / Zheng Qian | 饰 李川北
          高洁 / Jie Gao | 饰 文秀母亲
          吕乐 / Yue Lv | 饰 文秀父亲
          李织织 / Zhizhi Li | 饰 文秀妹妹
          乔迁 / Qian Qiao
          姜城 / Cheng Jiang | 饰 骑手甲
          顾学军 / Xuejun Gu
          杨小玉 / Xiaoyu Yang | 饰 女孩
          虎子 / Huzi | 饰 流氓
          李致正 / Zhizheng Li
          张琨 / Kun Zhang | 饰 曹会计
          李世金 / Shijin Li | 饰 司机
          贾冬 / Dong Jia | 饰 赶牛人甲
          王越 / Yue Wang | 饰 赶牛人乙
          曹雪蓝 / Xuelan Cao | 饰 买蜜蜂女人
          秦温原 / Wenyuan Qin | 饰 买蜜蜂男人
          谭晓应 / Xiaoying Tan | 饰 拖拉机男人
          陆忠 / Zhong Lu
          胡温起 / Wenqi Hu | 饰 清洁工
          杜敏 / Min Du | 饰 护士乙
          曹炯 / Jiong Cao | 饰 张三趾
          贾大水 / Dashui Jia | 饰 病人甲
          李亚玉 / Yayu Li | 饰 护士甲
          王洛勇 / Luoyong Wang
          于小林 / Xiaolin Yu
          高强 / Qiang Gao | 饰 推销员
          陈妤 / Yu Chen
          费宝娣 / Baodi Fei | 饰 文秀裸替
    ◎编  剧 陈冲 / Joan Chen
    ◎制  片  人 杨紫烨 / Ruby Yang
          陈惠中 / Wai-Chung Chan
          陈冲 / Joan Chen
    ◎音  乐 陈焕昌 / Johnny Chen
    ◎摄  影 陈杰 / Jie Chen
          范洁滨 / Jiebin Fan
          段正军 / Zhegnjun Duan
          吕乐 / Yue Lv
    ◎剪  辑 杨紫烨 / Ruby Yang
    ◎美  术 王志良 / Zhiliang Wang
          高志华 / Zhihua Gao
          朴若木 / Lai Pan
          秦成 / Cheng Qin
          高建华 / Jianhua Gao
          姚建云 / Jianyun Yao
          刘海 / Hai Liu
          温京瑞 / Jingrei Wen
          刘世云 / Sai-Wan Lau
    ◎服  装 奚笑 / Xiao Xi
          曹雪蓝 / Xuelan Cao
          朴若木 / Lai Pan
    ◎副  导  演 史和 / He Shi
    ◎音  效 莫国宁 / Gooning Mo
          杨占山 / Zhanshan Yang
    ◎视觉特效 布鲁斯·沃尔特斯 / Bruce Walters

    ◎简  介 

      知青题材的中国禁片。文秀(李小璐 饰)是城市里的孩子,自从踏上了下乡的路途,命运就此逆转。在荒凉的西藏牧区,文秀住在藏民老金(洛桑群培 饰)的营帐里面,由于老金被阉割过,文秀觉得放心,二人感情逐渐深厚。
      怎料事情起了波折。文秀一直不能忍受荒漠生活,想争取到回城的指标。就因这个指标,她错信了供销员的承诺。将贞操献了出去之后,她才醒悟到这是一场骗局。然而,她却越走越远了——为了能获取回城机会,她放弃了自己的身体,成为了众人的玩弄对象。一次次的伤害,并不能让她回到城市。老金旁观者清,痛在心里,决心为这件事做一个了决。

    ◎获奖情况 

      第48届柏林国际电影节 (1998)
      金熊奖(提名) 陈冲

      第35届台北金马影展 (1998)
      金马奖 最佳剧情片
      金马奖 最佳导演 陈冲
      金马奖 最佳男主角 洛桑群培
      金马奖 最佳女主角 李小璐
      金马奖 最佳改编剧本 陈冲
      金马奖 最佳摄影(提名) 吕乐
      金马奖 最佳造型设计(提名) 朴若木
      金马奖 最佳原创配乐 陈焕昌
      金马奖 最佳原创歌曲
      金马奖 最佳剪辑(提名) 杨紫烨
      金马奖 最佳音效(提名) 杰伊·博凯尔海德

    ◎幕后揭秘

      旅美多年并已在国际影坛上取得一席之地的内地女演员陈冲,在她首次当上导演的时候,仍然是选择了一个发生在“文革“期间的故事,可能因为这是她和同辈成长的人无法忘怀的历史记忆。

      影片处理这个不寻常的“孤男寡女”故事,手法十分细腻,两位演员也恰当地诠释了主角的个性,并且随着剧情的演进而生动地表现出他们的心理变化。对“苹果“和“水”的象征性运用也颇具巧思。影片采用文秀在成都的一位小男友的回忆与想象来描述文秀的悲剧,旁白颇具文艺色彩,在淡淡的追忆中弥漫出一股对文革这个政治气氛吞噬人性的控诉。

      摄影指导吕乐充分掌握了西藏草原的大自然美景,有不少映象流露出诗意,小虫的配乐也动人心弦。因此本片虽然只算是一部文艺小品,但在各方面都呈现出一种精致的高品质,在金马奖获最佳影片等七项大奖。当时年仅14岁的李小璐被选中,成为该片的女主角。
    INFO
    General
    Unique ID                      : 296049544805592717292876615180351344358 (0xDEB9117E7D5F3242441F8333F9BE8EE6)
    Complete name                  : E:\待发布\天浴.The Sent-Down Girl.1998.AI.1080p.DVD5.x264.AC3-Milton\天浴.The Sent-Down Girl.1998.AI.1080p.DVD5.x264.AC3-Milton.mkv
    Format                         : Matroska
    Format version                 : Version 4
    File size                      : 6.19 GiB
    Duration                       : 1 h 39 min
    Overall bit rate mode          : Variable
    Overall bit rate               : 8 899 kb/s
    Encoded date                   : UTC 2022-04-26 21:32:30
    Writing application            : mkvmerge v67.0.0 ('Under Stars') 64-bit
    Writing library                : libebml v1.4.2 + libmatroska v1.6.4 / ShanaEncoder

    Video
    ID                             : 1
    Format                         : AVC
    Format/Info                    : Advanced Video Codec
    Format profile                 : High@L4
    Format settings                : CABAC / 4 Ref Frames
    Format settings, CABAC         : Yes
    Format settings, Reference fra : 4 frames
    Codec ID                       : V_MPEG4/ISO/AVC
    Duration                       : 1 h 39 min
    Bit rate mode                  : Variable
    Bit rate                       : 8 065 kb/s
    Maximum bit rate               : 16.0 Mb/s
    Width                          : 1 408 pixels
    Height                         : 1 072 pixels
    Display aspect ratio           : 4:3
    Frame rate mode                : Constant
    Frame rate                     : 29.970 (30000/1001) FPS
    Color space                    : YUV
    Chroma subsampling             : 4:2:0
    Bit depth                      : 8 bits
    Scan type                      : Progressive
    Bits/(Pixel*Frame)             : 0.178
    Stream size                    : 5.61 GiB (91%)
    Default                        : Yes
    Forced                         : No

    Audio #1
    ID                             : 2
    Format                         : AC-3
    Format/Info                    : Audio Coding 3
    Commercial name                : Dolby Digital
    Codec ID                       : A_AC3
    Duration                       : 1 h 39 min
    Bit rate mode                  : Constant
    Bit rate                       : 448 kb/s
    Channel(s)                     : 6 channels
    Channel layout                 : L R C LFE Ls Rs
    Sampling rate                  : 48.0 kHz
    Frame rate                     : 31.250 FPS (1536 SPF)
    Compression mode               : Lossy
    Stream size                    : 319 MiB (5%)
    Title                          : 3/2+1
    Language                       : Chinese
    Service kind                   : Complete Main
    Default                        : Yes
    Forced                         : No

    Audio #2
    ID                             : 3
    Format                         : AC-3
    Format/Info                    : Audio Coding 3
    Commercial name                : Dolby Digital
    Codec ID                       : A_AC3
    Duration                       : 1 h 39 min
    Bit rate mode                  : Constant
    Bit rate                       : 384 kb/s
    Channel(s)                     : 2 channels
    Channel layout                 : L R
    Sampling rate                  : 48.0 kHz
    Frame rate                     : 31.250 FPS (1536 SPF)
    Compression mode               : Lossy
    Stream size                    : 274 MiB (4%)
    Title                          : 2/0
    Language                       : Chinese
    Service kind                   : Complete Main
    Default                        : No
    Forced                         : No

    Text
    ID                             : 4
    Format                         : ASS
    Codec ID                       : S_TEXT/ASS
    Codec ID/Info                  : Advanced Sub Station Alpha
    Duration                       : 1 h 35 min
    Bit rate                       : 41 b/s
    Count of elements              : 662
    Compression mode               : Lossless
    Stream size                    : 28.8 KiB (0%)
    Language                       : Chinese
    Default                        : Yes
    Forced                         : No
    SCREENS






    购买主题 已有 23 人购买  本主题需向作者支付 80 大洋 才能浏览
    1,如有链接失效,可发站内消息给我,看到后会补上新链接!一定是发消息!帖子下留言我很可能看不到!
    2,我发的所有电影都是已经刮削好了的,文件夹里除了电影、字幕文件外,还包含NFO信息和海报,可以直接支持KODI、PLEX、EMBY、INFUSE等软件直接本地读取并加载海报墙,不需要挂梯子联网刮削!对海报墙没需求的亦可直接删除!
    3,我是个人用户,非管理组,发帖纯属个人爱好。别再问我为什么不用百度和115网盘发了,论坛对分享平台没有限制!已咨询过版主,使用115、百度以外的网盘不违规!
    回复

    使用道具 举报

  • TA的每日心情
    擦汗
    11 小时前
  • 签到天数: 187 天

    [LV.7]常住居民III

    25

    主题

    972

    帖子

    93

    积分

    中级影迷

    Rank: 3Rank: 3

    积分
    93
    发表于 2022-4-30 23:02:20 | 显示全部楼层
    问题是DVD的原始分辨率有1080p吗?如果没有,这样放大有意义吗?

    点评

    我没有质疑你修复的意义。我也能接受720i/480p,你能把720x480的图片修复成1920x1080,而且说画质更好了,呵呵,你开心就好。  详情 回复 发表于 2022-5-1 15:10
    你理解的修复就是放大?画质不好只会越放大越模糊。1秒最少24帧,也就是24张图片,修复是把每一张图片进行修复,懂了吗?  发表于 2022-4-30 23:09
    回复

    使用道具 举报

  • TA的每日心情
    郁闷
    前天 00:04
  • 签到天数: 72 天

    [LV.6]常住居民II

    0

    主题

    247

    帖子

    20

    积分

    入门影迷

    Rank: 1

    积分
    20
    发表于 2022-5-1 02:34:41 | 显示全部楼层
    请问是用什么软件进行反交错处理?

    点评

    好的,谢谢。  发表于 2022-5-2 00:32
    大菠萝handbrake  发表于 2022-5-1 07:36
    回复

    使用道具 举报

  • TA的每日心情
    开心
    11 小时前
  • 签到天数: 119 天

    [LV.6]常住居民II

    6

    主题

    1176

    帖子

    214

    积分

    高级影迷

    Rank: 4

    积分
    214
    发表于 2022-5-1 06:54:28 来自手机 | 显示全部楼层
    很好很强大
    回复

    使用道具 举报

  • TA的每日心情
    难过
    17 小时前
  • 签到天数: 322 天

    [LV.8]以坛为家I

    15

    主题

    2665

    帖子

    171

    积分

    高级影迷

    Rank: 4

    积分
    171
    发表于 2022-5-1 06:55:30 | 显示全部楼层
    这个厉害!~
    回复

    使用道具 举报

  • TA的每日心情
    开心
    8 小时前
  • 签到天数: 550 天

    [LV.9]以坛为家II

    0

    主题

    6683

    帖子

    351

    积分

    超级影迷

    Rank: 6Rank: 6

    积分
    351
    发表于 2022-5-1 10:21:17 | 显示全部楼层
    感谢分享!
    回复

    使用道具 举报

  • TA的每日心情

    4 小时前
  • 签到天数: 676 天

    [LV.9]以坛为家II

    8

    主题

    2493

    帖子

    138

    积分

    中级影迷

    Rank: 3Rank: 3

    积分
    138
    发表于 2022-5-1 10:56:11 | 显示全部楼层
    谢谢 收下了 不错
    回复

    使用道具 举报

  • TA的每日心情
    擦汗
    11 小时前
  • 签到天数: 187 天

    [LV.7]常住居民III

    25

    主题

    972

    帖子

    93

    积分

    中级影迷

    Rank: 3Rank: 3

    积分
    93
    发表于 2022-5-1 15:10:13 | 显示全部楼层
    solitas 发表于 2022-4-30 23:02
    问题是DVD的原始分辨率有1080p吗?如果没有,这样放大有意义吗?

    我没有质疑你修复的意义。我也能接受720i/480p,你能把720x480的图片修复成1920x1080,而且说画质更好了,呵呵,你开心就好。

    点评

    不懂就去学习,或者说你至少下载一部对比一下再来评价行吗?你都没对比过,上来就否定别人的的成果。还振振有词,以为自己很懂,只会显得你很无知!如果不能把画质修复更好,那请问站里那么多4k重制版是怎么来的?那  详情 回复 发表于 2022-5-1 19:28
    回复

    使用道具 举报

  • TA的每日心情
    开心
    2020-6-7 21:35
  • 签到天数: 1 天

    [LV.1]初来乍到

    1

    主题

    565

    帖子

    732

    积分

    专业影迷

    Rank: 8Rank: 8

    积分
    732
    发表于 2022-5-1 18:11:24 | 显示全部楼层
    谢谢分享!
    回复

    使用道具 举报

  • TA的每日心情
    开心
    12 小时前
  • 签到天数: 333 天

    [LV.8]以坛为家I

    7

    主题

    2076

    帖子

    370

    积分

    超级影迷

    Rank: 6Rank: 6

    积分
    370
    发表于 2022-5-1 18:26:55 | 显示全部楼层
    支持高清,感谢分享
    回复

    使用道具 举报

    您需要登录后才可以回帖 登录 | 立即注册

    本版积分规则

    QQ|Archiver|手机版|小黑屋|影迷乐园

    GMT+8, 2022-7-7 18:52 , Processed in 0.109638 second(s), 29 queries .

    Powered by Discuz! X3.4

    Copyright © 2001-2020, Tencent Cloud.

    快速回复 返回顶部 返回列表