请选择 进入手机版 | 继续访问电脑版

YMLY-影迷乐园-特效字幕 蓝光原盘 1080P 高清动漫电影电视剧

 找回密码
 立即注册
搜索
查看: 674|回复: 50

[修复版] [阿里][2003][1080p][香火][独家修复版][宁浩][内嵌中英字幕][4.78GB][MKV][Incense.2003.AI.1080P.x264.AC3-Milton]

[复制链接]
  • TA的每日心情
    奋斗
    2022-6-7 19:43
  • 签到天数: 82 天

    [LV.6]常住居民II

    72

    主题

    2116

    帖子

    1431

    积分

    资深影迷

    Rank: 10Rank: 10Rank: 10

    积分
    1431

    小土豪勋章土豪勋章

    发表于 2022-4-30 17:45:10 | 显示全部楼层 |阅读模式
    ---修复用到的源文件为同名DVDrip版本,字幕为内嵌双语字幕---
    ---本来没打算发这部的,因为这部电影太冷门了,而且画质修出来也一般。
    但这部电影真的是一部好电影,个人认为是宁浩最好的作品,没有之一!
    该片作为宁浩的处女作,宁浩拍这部电影时还没毕业,全片总共才花了四万块钱,
    而且全片没有一个专业演员!从这些花销也可以看出这部电影画质渣的原因了
    看了这部电影你就知道,宁浩喜欢玩黑色幽默是天生的,而且玩的炉火纯青!---

    ---把它发出来是想让更多人看到这部好作品,所以这部就不收费了,免费!
    但你们答应我一定要看啊 ---

    文件名:香火.Incense.2003.AI.1080P.x264.AC3-Milton


    ◎译  名 Incense
    ◎片  名 香火
    ◎年  代 2003
    ◎产  地 中国大陆
    ◎类  别 剧情
    ◎语  言 汉语普通话
    ◎上映日期 2003
    ◎豆瓣评星 ★★★★☆
    ◎豆瓣评分 8.4/10 from 15,623 users
    ◎豆瓣链接 https://movie.douban.com/subject/1754628/
    ◎片  长 97分钟
    ◎导  演 宁浩 / Hao Ning
    ◎演  员 李强 / Qiang Li | 饰 和尚
    ◎编  剧 宁浩 / Hao Ning
    ◎制  片  人 吴军 / Jun Wu
    ◎摄  影 宁浩 / Hao Ning
    ◎剪  辑 宁浩 / Hao Ning
          乔爱宇 / Aiyu Qiao

    ◎简  介 

      庙里的佛像塌了,需要三千元钱重新修葺,为了筹得这笔钱,和尚(李强 饰)先后来到了佛教科和文物科,然而两方人马只会相互推诿责任,看来谁也不打算掏出这笔钱来。无奈之下,和尚前去找在另一座庙中生活的师兄帮忙,可是师兄只是劝他放弃。
      之后,和尚决定靠化缘筹钱,哪知道没过多久竟然被警察抓进了派出所,出来后,和尚遇见了想要帮忙的妓女、企图哄女友开心的小伙子和一心想替妻子求药治病的丈夫,甚至当起了算命先生。最终,和尚卖掉了念珠总算筹齐了钱,当他满心欢喜的回到庙里之时,等待着他的,却是寺庙即将被拆的消息。
    INFO
    General
    Unique ID                      : 220114929629660964016776211225421935934 (0xA59897EA3EB9898CDA2175E35EB1F53E)
    Complete name                  : E:\待发布\香火.Incense.2003.AI.1080P.x264.AC3-Milton.mkv
    Format                         : Matroska
    Format version                 : Version 4
    File size                      : 4.79 GiB
    Duration                       : 1 h 37 min
    Overall bit rate mode          : Variable
    Overall bit rate               : 7 024 kb/s
    Encoded date                   : UTC 2022-04-24 17:32:19
    Writing application            : mkvmerge v67.0.0 ('Under Stars') 64-bit
    Writing library                : libebml v1.4.2 + libmatroska v1.6.4 / ShanaEncoder

    Video
    ID                             : 1
    Format                         : AVC
    Format/Info                    : Advanced Video Codec
    Format profile                 : High@L4
    Format settings                : CABAC / 4 Ref Frames
    Format settings, CABAC         : Yes
    Format settings, Reference fra : 4 frames
    Codec ID                       : V_MPEG4/ISO/AVC
    Duration                       : 1 h 37 min
    Bit rate mode                  : Variable
    Bit rate                       : 6 830 kb/s
    Maximum bit rate               : 16.0 Mb/s
    Width                          : 1 440 pixels
    Height                         : 1 072 pixels
    Display aspect ratio           : 4:3
    Frame rate mode                : Constant
    Frame rate                     : 25.000 FPS
    Color space                    : YUV
    Chroma subsampling             : 4:2:0
    Bit depth                      : 8 bits
    Scan type                      : Progressive
    Bits/(Pixel*Frame)             : 0.177
    Stream size                    : 4.66 GiB (97%)
    Default                        : Yes
    Forced                         : No

    Audio
    ID                             : 2
    Format                         : AC-3
    Format/Info                    : Audio Coding 3
    Commercial name                : Dolby Digital
    Codec ID                       : A_AC3
    Duration                       : 1 h 37 min
    Bit rate mode                  : Constant
    Bit rate                       : 192 kb/s
    Channel(s)                     : 2 channels
    Channel layout                 : L R
    Sampling rate                  : 48.0 kHz
    Frame rate                     : 31.250 FPS (1536 SPF)
    Compression mode               : Lossy
    Stream size                    : 134 MiB (3%)
    Title                          : original
    Language                       : Chinese
    Service kind                   : Complete Main
    Default                        : No
    Forced                         : No
    SCREENS





    游客,如果您要查看本帖隐藏内容请回复
    1,如有链接失效,可发站内消息给我,看到后会补上新链接!一定是发消息!帖子下留言我很可能看不到!
    2,我发的所有电影都是已经刮削好了的,文件夹里除了电影、字幕文件外,还包含NFO信息和海报,可以直接支持KODI、PLEX、EMBY、INFUSE等软件直接本地读取并加载海报墙,不需要挂梯子联网刮削!对海报墙没需求的亦可直接删除!
    3,我是个人用户,非管理组,发帖纯属个人爱好。别再问我为什么不用百度和115网盘发了,论坛对分享平台没有限制!已咨询过版主,使用115、百度以外的网盘不违规!
    回复

    使用道具 举报

  • TA的每日心情
    无聊
    2022-5-16 01:24
  • 签到天数: 63 天

    [LV.6]常住居民II

    0

    主题

    2617

    帖子

    184

    积分

    高级影迷

    Rank: 4

    积分
    184
    发表于 2022-5-1 00:19:27 | 显示全部楼层
    谢谢分享啊
    回复

    使用道具 举报

  • TA的每日心情
    郁闷
    前天 00:04
  • 签到天数: 72 天

    [LV.6]常住居民II

    0

    主题

    247

    帖子

    20

    积分

    入门影迷

    Rank: 1

    积分
    20
    发表于 2022-5-1 02:37:34 | 显示全部楼层
    感谢分享冷门电影
    回复

    使用道具 举报

  • TA的每日心情
    开心
    12 小时前
  • 签到天数: 119 天

    [LV.6]常住居民II

    6

    主题

    1176

    帖子

    214

    积分

    高级影迷

    Rank: 4

    积分
    214
    发表于 2022-5-1 06:53:04 来自手机 | 显示全部楼层
    很好很强大
    回复

    使用道具 举报

  • TA的每日心情
    难过
    17 小时前
  • 签到天数: 322 天

    [LV.8]以坛为家I

    15

    主题

    2665

    帖子

    171

    积分

    高级影迷

    Rank: 4

    积分
    171
    发表于 2022-5-1 07:07:04 | 显示全部楼层
    谢谢分享~~
    回复

    使用道具 举报

  • TA的每日心情
    擦汗
    2022-5-12 13:23
  • 签到天数: 1 天

    [LV.1]初来乍到

    0

    主题

    787

    帖子

    54

    积分

    初级影迷

    Rank: 2

    积分
    54
    发表于 2022-5-1 07:22:48 来自手机 | 显示全部楼层
    我爱你!!!!!
    回复

    使用道具 举报

  • TA的每日心情

    4 小时前
  • 签到天数: 676 天

    [LV.9]以坛为家II

    8

    主题

    2493

    帖子

    138

    积分

    中级影迷

    Rank: 3Rank: 3

    积分
    138
    发表于 2022-5-1 09:46:21 | 显示全部楼层
    谢谢 收下了 好资源
    回复

    使用道具 举报

  • TA的每日心情
    开心
    9 小时前
  • 签到天数: 550 天

    [LV.9]以坛为家II

    0

    主题

    6683

    帖子

    351

    积分

    超级影迷

    Rank: 6Rank: 6

    积分
    351
    发表于 2022-5-1 10:09:24 | 显示全部楼层
    谢谢分享!
    回复

    使用道具 举报

  • TA的每日心情
    开心
    26 分钟前
  • 签到天数: 891 天

    [LV.10]以坛为家III

    3

    主题

    1367

    帖子

    152

    积分

    高级影迷

    Rank: 4

    积分
    152
    发表于 2022-5-1 14:01:04 | 显示全部楼层
    看看                     
    回复

    使用道具 举报

  • TA的每日心情
    开心
    19 小时前
  • 签到天数: 574 天

    [LV.9]以坛为家II

    0

    主题

    2628

    帖子

    356

    积分

    超级影迷

    Rank: 6Rank: 6

    积分
    356
    发表于 2022-5-2 00:15:12 | 显示全部楼层
    很不错的片子多谢啦
    回复

    使用道具 举报

    您需要登录后才可以回帖 登录 | 立即注册

    本版积分规则

    QQ|Archiver|手机版|小黑屋|影迷乐园

    GMT+8, 2022-7-7 19:33 , Processed in 0.124042 second(s), 26 queries .

    Powered by Discuz! X3.4

    Copyright © 2001-2020, Tencent Cloud.

    快速回复 返回顶部 返回列表