请选择 进入手机版 | 继续访问电脑版

YMLY-影迷乐园-特效字幕 蓝光原盘 1080P 高清动漫电影电视剧

 找回密码
 立即注册
搜索
查看: 509|回复: 42

[WEB-DL] [阿里+百度][1995][1080P][刀][国粤双轨.内封简繁字幕][7.81GB][MKV][The.Blade.1995.NF.1080p.WEB-DL.x264.DDP2.0.3Audio-Stephen]

[复制链接]
  • TA的每日心情
    奋斗
    2022-6-7 19:43
  • 签到天数: 82 天

    [LV.6]常住居民II

    72

    主题

    2116

    帖子

    1431

    积分

    资深影迷

    Rank: 10Rank: 10Rank: 10

    积分
    1431

    小土豪勋章土豪勋章

    发表于 2022-5-6 19:28:55 | 显示全部楼层 |阅读模式
    ---电影来源于网络,字幕为NF官方简繁---
    ---别问为什么这么贵,问就是因为稀有,花rmb买来的 ---

    文件名:刀.The.Blade.1995.NF.1080p.WEB-DL.x264.DDP2.0.3Audio-Stephen


    ◎译  名 The Blade / 断刀客
    ◎片  名 刀
    ◎年  代 1995
    ◎产  地 中国香港 / 中国大陆
    ◎类  别 剧情 / 动作 / 武侠
    ◎语  言 汉语普通话 / 粤语
    ◎上映日期 1995-12-21(中国香港)
    ◎豆瓣评星 ★★★★☆
    ◎豆瓣评分 8.1/10 from 39,207 users
    ◎豆瓣链接 https://movie.douban.com/subject/1401962/
    ◎片  长 105分钟
    ◎导  演 徐克 / Hark Tsui
    ◎演  员 赵文卓 / Man Cheuk Chiu | 饰 黎定安
          熊欣欣 / Xinxin Xiong | 饰 飞龙
          桑妮 / Sonny Song | 饰 向灵
          惠天赐 / Austin Wai | 饰 向且正
          陈豪 / Moses Chan | 饰 铁头
          钟碧霞 / Bik Ha Chung
          朱永棠 / Jason Chu
          周嘉玲 / Valerie Chow
          谢天华 / Michael Tse
          邹兆龙 / Collin Chou
          元彬 / Bun Yuen
          陈志辉 / Chi Fai Chan
          雪妮 / Nei Suet
          司马华龙 / Wah Lung Szema
          王文成 / Man Shing Wong
          陈荣宗 / Dickens Chan | 饰 和尚
          罗伟佳 / Wai-Kai Law
          何家驹 / Ka-Kui Ho
          李道谕 / Do-Yu Lee
          钱似莺 / Tsi-Ang Chin
    ◎编  剧 许安 / Koan Hui
          苏文星 / Man Sing So
          徐克 / Hark Tsui
    ◎制  片  人 邹文怀 / Raymond Chow
          黄庆勋 / Danny Wong
          徐克 / Hark Tsui
    ◎音  乐 黄英华 / Ying-Wah Wong
          胡伟立 / Wai Lap Wu
    ◎摄  影 姜国民 / Kwok-Man Keung
    ◎剪  辑 徐克 / Hark Tsui
          金马 / Ma Kam
    ◎美  术 张叔平 / William Chang
          雷楚雄 / Bill Lui
    ◎服  装 张叔平 / William Chang
    ◎化  妆 关莉娜 / Lee-na Kwan
    ◎副  导  演 许安 / Koan Hui
    ◎动作特技 董玮 / Wai Tung
          元彬 / Bun Yuen
          萧德虎 / Siu Tak-Foo

    ◎简  介 

      炼锋号铸刀厂大弟子定安(赵文卓饰)被师父选为继承人,后来他知晓了父亲乃惨死于马贼恶汉飞龙(熊欣欣饰)刀下,大殿供奉的断刀正是亡父的遗物。定安带断刀出走,师父女儿向灵(桑妮饰)为爱而追寻,却被马贼所掳,定安舍身相救时竟不幸右手被斩堕下山崖。
      断手后定安自思报仇无望,本想就此退隐江湖,不料又拾得半本绝世刀谱,于是决心秘密练刀为父报仇。可又因刀谱残缺无法练成,最后定安苦思之后自创独臂断刀刀法,他能否救得了危难中的炼锋号并手刃杀父仇人飞龙?

    ◎获奖情况 

      第15届香港电影金像奖 (1996)
      最佳服装造型设计(提名) 张叔平
      最佳动作设计(提名) 元彬,孟海,董玮

    ◎幕后揭秘

      本片在表现江湖情仇的主题上,采用一种歇斯底里的方式,令人紧张屏息的明快叙事,干脆利落的节奏进程,鲜明刺目的画面表现,在晃动不堪的镜头和凌乱无比的剪辑中,书写出了一段快意的复仇之路。徐克在本片中对技术的运用达到一个高峰,电影在始终亢奋的基调中走到尽头,极度的暴力和大量洒落的鲜血的画面,阴暗与鲜明色彩的对立。一次次的刺激着观众的感官神经与心理。就像片名《刀》一样,这是一部建立在刀锋上的电影,在戾气色彩浓重的画面的快刀乱麻的剪辑下,把一个彻底混乱的江湖活脱的展现出来。

      《刀》是徐克的一次宣泄之旅,充满了强烈的个人气息,令人兴奋不已。本片像一把杀人无数的快刀,快意无比,锋芒毕露。新武侠派在这部作品中,视觉化元素达到顶峰。
    INFO
    General
    Unique ID                      : 84687776138164793368482118838693156004 (0x3FB645BBED98D5924477D8EEF93454A4)
    Complete name                  : X:\AAAAAAA\刀.The.Blade.1995.NF.1080p.WEB-DL.x264.DDP2.0.3Audio-Stephen\刀.The.Blade.1995.NF.1080p.WEB-DL.x264.DDP2.0.3Audio-Stephen.mkv
    Format                         : Matroska
    Format version                 : Version 4
    File size                      : 7.82 GiB
    Duration                       : 1 h 49 min
    Overall bit rate               : 10.2 Mb/s
    Encoded date                   : UTC 2022-05-05 06:18:31
    Writing application            : mkvmerge v67.0.0 ('Under Stars') 64-bit
    Writing library                : libebml v1.4.2 + libmatroska v1.6.4

    Video
    ID                             : 1
    Format                         : AVC
    Format/Info                    : Advanced Video Codec
    Format profile                 : High@L4.1
    Format settings                : CABAC / 4 Ref Frames
    Format settings, CABAC         : Yes
    Format settings, Reference fra : 4 frames
    Codec ID                       : V_MPEG4/ISO/AVC
    Duration                       : 1 h 49 min
    Bit rate mode                  : Constant
    Bit rate                       : 9 800 kb/s
    Width                          : 1 920 pixels
    Height                         : 1 080 pixels
    Display aspect ratio           : 16:9
    Frame rate mode                : Constant
    Frame rate                     : 23.976 (24000/1001) FPS
    Standard                       : NTSC
    Color space                    : YUV
    Chroma subsampling             : 4:2:0
    Bit depth                      : 8 bits
    Scan type                      : Progressive
    Bits/(Pixel*Frame)             : 0.197
    Stream size                    : 7.42 GiB (95%)
    Default                        : Yes
    Forced                         : No
    Color range                    : Limited
    Color primaries                : BT.709
    Transfer characteristics       : BT.709
    Matrix coefficients            : BT.709

    Audio #1
    ID                             : 2
    Format                         : AC-3
    Format/Info                    : Audio Coding 3
    Commercial name                : Dolby Digital
    Codec ID                       : A_AC3
    Duration                       : 1 h 49 min
    Bit rate mode                  : Constant
    Bit rate                       : 192 kb/s
    Channel(s)                     : 2 channels
    Channel layout                 : L R
    Sampling rate                  : 48.0 kHz
    Frame rate                     : 31.250 FPS (1536 SPF)
    Compression mode               : Lossy
    Stream size                    : 151 MiB (2%)
    Title                          : DVD国语
    Language                       : Chinese
    Service kind                   : Complete Main
    Default                        : Yes
    Forced                         : No

    Audio #2
    ID                             : 3
    Format                         : AC-3
    Format/Info                    : Audio Coding 3
    Commercial name                : Dolby Digital
    Codec ID                       : A_AC3
    Duration                       : 1 h 49 min
    Bit rate mode                  : Constant
    Bit rate                       : 192 kb/s
    Channel(s)                     : 2 channels
    Channel layout                 : L R
    Sampling rate                  : 48.0 kHz
    Frame rate                     : 31.250 FPS (1536 SPF)
    Compression mode               : Lossy
    Stream size                    : 151 MiB (2%)
    Title                          : DVD粤语
    Language                       : Chinese
    Service kind                   : Complete Main
    Default                        : No
    Forced                         : No

    Audio #3
    ID                             : 4
    Format                         : E-AC-3
    Format/Info                    : Enhanced AC-3
    Commercial name                : Dolby Digital Plus
    Codec ID                       : A_EAC3
    Duration                       : 1 h 49 min
    Bit rate mode                  : Constant
    Bit rate                       : 128 kb/s
    Channel(s)                     : 2 channels
    Channel layout                 : L R
    Sampling rate                  : 48.0 kHz
    Frame rate                     : 31.250 FPS (1536 SPF)
    Compression mode               : Lossy
    Stream size                    : 100 MiB (1%)
    Title                          : Netflix粤语
    Language                       : Chinese
    Service kind                   : Complete Main
    Default                        : No
    Forced                         : No

    Text #1
    ID                             : 5
    Format                         : UTF-8
    Codec ID                       : S_TEXT/UTF8
    Codec ID/Info                  : UTF-8 Plain Text
    Duration                       : 1 h 46 min
    Bit rate                       : 29 b/s
    Count of elements              : 914
    Stream size                    : 22.8 KiB (0%)
    Title                          : 简体字幕
    Language                       : Chinese
    Default                        : Yes
    Forced                         : No

    Text #2
    ID                             : 6
    Format                         : UTF-8
    Codec ID                       : S_TEXT/UTF8
    Codec ID/Info                  : UTF-8 Plain Text
    Duration                       : 1 h 46 min
    Bit rate                       : 29 b/s
    Count of elements              : 914
    Stream size                    : 22.8 KiB (0%)
    Title                          : 繁体字幕
    Language                       : Chinese
    Default                        : No
    Forced                         : No
    SCREENS



    购买主题 已有 15 人购买  本主题需向作者支付 50 大洋 才能浏览
    1,如有链接失效,可发站内消息给我,看到后会补上新链接!一定是发消息!帖子下留言我很可能看不到!
    2,我发的所有电影都是已经刮削好了的,文件夹里除了电影、字幕文件外,还包含NFO信息和海报,可以直接支持KODI、PLEX、EMBY、INFUSE等软件直接本地读取并加载海报墙,不需要挂梯子联网刮削!对海报墙没需求的亦可直接删除!
    3,我是个人用户,非管理组,发帖纯属个人爱好。别再问我为什么不用百度和115网盘发了,论坛对分享平台没有限制!已咨询过版主,使用115、百度以外的网盘不违规!
    回复

    使用道具 举报

  • TA的每日心情
    开心
    2021-12-24 13:56
  • 签到天数: 26 天

    [LV.4]偶尔看看III

    0

    主题

    1045

    帖子

    108

    积分

    中级影迷

    Rank: 3Rank: 3

    积分
    108
    发表于 2022-5-6 20:49:14 | 显示全部楼层
    谢谢楼主分享
    回复

    使用道具 举报

  • TA的每日心情
    难过
    16 小时前
  • 签到天数: 322 天

    [LV.8]以坛为家I

    15

    主题

    2665

    帖子

    171

    积分

    高级影迷

    Rank: 4

    积分
    171
    发表于 2022-5-7 00:31:06 | 显示全部楼层

    谢谢楼主分享~
    回复

    使用道具 举报

  • TA的每日心情
    开心
    10 小时前
  • 签到天数: 422 天

    [LV.9]以坛为家II

    0

    主题

    5019

    帖子

    252

    积分

    超级影迷

    Rank: 6Rank: 6

    积分
    252
    发表于 2022-5-7 10:43:41 | 显示全部楼层

    谢谢楼主分享
    回复

    使用道具 举报

  • TA的每日心情
    开心
    11 小时前
  • 签到天数: 829 天

    [LV.10]以坛为家III

    0

    主题

    1498

    帖子

    132

    积分

    中级影迷

    Rank: 3Rank: 3

    积分
    132
    发表于 2022-5-7 11:24:17 | 显示全部楼层
    谢谢谢谢谢谢谢谢谢谢谢谢谢
    回复

    使用道具 举报

  • TA的每日心情
    开心
    8 小时前
  • 签到天数: 550 天

    [LV.9]以坛为家II

    0

    主题

    6683

    帖子

    351

    积分

    超级影迷

    Rank: 6Rank: 6

    积分
    351
    发表于 2022-5-7 12:18:15 | 显示全部楼层
    谢谢分享!
    回复

    使用道具 举报

  • TA的每日心情
    开心
    2020-3-1 12:35
  • 签到天数: 3 天

    [LV.2]偶尔看看I

    0

    主题

    670

    帖子

    42

    积分

    初级影迷

    Rank: 2

    积分
    42
    发表于 2022-5-7 14:26:42 | 显示全部楼层
    没有看过。
    回复

    使用道具 举报

  • TA的每日心情
    开心
    10 小时前
  • 签到天数: 1069 天

    [LV.10]以坛为家III

    0

    主题

    1392

    帖子

    154

    积分

    高级影迷

    Rank: 4

    积分
    154
    发表于 2022-5-7 19:21:54 | 显示全部楼层
    断刀客呀,不错不错,下载
    回复

    使用道具 举报

  • TA的每日心情
    开心
    18 小时前
  • 签到天数: 574 天

    [LV.9]以坛为家II

    0

    主题

    2628

    帖子

    356

    积分

    超级影迷

    Rank: 6Rank: 6

    积分
    356
    发表于 2022-5-7 22:26:51 | 显示全部楼层
    经典剧目,贵一点是正常的!

    点评

    我给你发站内信你怎么不回我啊  发表于 2022-5-7 22:31
    回复

    使用道具 举报

  • TA的每日心情
    奋斗
    6 天前
  • 签到天数: 51 天

    [LV.5]常住居民I

    1

    主题

    538

    帖子

    438

    积分

    超级影迷

    Rank: 6Rank: 6

    积分
    438
    发表于 2022-5-7 22:41:29 | 显示全部楼层
    徐克毁誉参半的作品,感谢分享。。。
    回复

    使用道具 举报

    您需要登录后才可以回帖 登录 | 立即注册

    本版积分规则

    QQ|Archiver|手机版|小黑屋|影迷乐园

    GMT+8, 2022-7-7 18:19 , Processed in 0.111799 second(s), 29 queries .

    Powered by Discuz! X3.4

    Copyright © 2001-2020, Tencent Cloud.

    快速回复 返回顶部 返回列表