请选择 进入手机版 | 继续访问电脑版

YMLY-影迷乐园-特效字幕 蓝光原盘 1080P 高清动漫电影电视剧

 找回密码
 立即注册
搜索
查看: 517|回复: 39

[修复版] [阿里+百度][1999][1080P][心动][寰亚修复][国语.内嵌简中字幕][12.1GB][Mp4][Tempting.Heart.1999.1080p.WEB-DL.x264.AAC-Einrouse]

[复制链接]
  • TA的每日心情
    奋斗
    2022-6-7 19:43
  • 签到天数: 82 天

    [LV.6]常住居民II

    72

    主题

    2116

    帖子

    1431

    积分

    资深影迷

    Rank: 10Rank: 10Rank: 10

    积分
    1431

    小土豪勋章土豪勋章

    发表于 2022-5-12 18:45:19 | 显示全部楼层 |阅读模式
    不确定是不是官方修复,还是流媒体平台修复,反正修复的质量很好,不过只有国语音轨。
    我前几天还悬赏这部电影呢,最后没悬赏到,不过买到了,我花钱,你们花大洋,不过分吧?
    我的大洋虽然不是很多,但其实是花不完的。设置高价是让大家知道物以稀为贵!
    也希望更多的人愿意分享一些比较难找的好电影

    文件名:心动.Tempting.Heart.1999.1080p.WEB-DL.x264.AAC-Einrouse


    ◎译  名 心动 / Sam Dung / Tempting Heart
    ◎片  名 心動
    ◎年  代 1999
    ◎产  地 中国香港 / 日本
    ◎类  别 爱情
    ◎语  言 粤语 / 日语
    ◎上映日期 1999-09-23(中国香港)
    ◎豆瓣评星 ★★★★☆
    ◎豆瓣评分 8.2/10 from 82,210 users
    ◎豆瓣链接 https://movie.douban.com/subject/1292289/
    ◎片  长 115分钟(日本)
    ◎导  演 张艾嘉 / Sylvia Chang
    ◎演  员 金城武 / Takeshi Kaneshiro
          梁咏琪 / Gigi Leung
          莫文蔚 / Karen Mok
          张艾嘉 / Sylvia Chang
          苏永康 / William So Wing Hong
          金燕玲 / Elaine Jin
          戴立忍 / Leon Dai
          杨雪仪 / Cher Yeung
          唐文龙 / Michael Tong
          谷祖琳 / Jolane Koo
          陈桂芬 / Brenda Chan
          陈文媛 / Bobo Chan
    ◎编  剧 关皓月 / Cat Kwan
          张艾嘉 / Sylvia Chang
    ◎制  片  人 成龙 / Jackie Chan
          谢家慧 / Doris Tse
          庄澄 / John Chong
          苏志鸿 / Solon So
    ◎摄  影 李屏宾 / Mark Lee Ping Bing
    ◎剪  辑 邝志良 / Chi-Leung Kwong
    ◎美  术 文念中 / Lim Chung Man
    ◎化  妆 黄国雄 / Samuel Wong
    ◎视觉特效 Sam Nicholson Sam Nicholson
          Jaison Stritch Jaison Stritch
    ◎其  它 汤湘竹 / Shiang-Chu Tang

    ◎简  介 

      女导演Cheryl(张艾嘉 饰)跟编剧商量准备开拍一部关于初恋的爱情故事,她决定把故事时间订在1977年,那时候的女主角小柔(梁咏琪 饰)只有17岁,在舞会上遇到了男主角浩君(金城武 饰)二人一见钟情,很快他们便陷入了热恋之中。小柔有一个好朋友叫陈莉(莫文蔚 饰),小柔除了跟她诉说心事以为,更是逃过妈妈追问出外过夜的好借口。浩君与小柔的家人很快知道了他们的事,两方家长都要求他们分手了断,伤心欲绝的小柔找到陈莉,原来陈莉一直喜欢小柔,令小柔惊吓不已。
      多年后,浩君与小柔在日本重逢,就算他们各自都有了另一半,但还是阻止不了他们再次走进对方的生活。

    ◎获奖情况 

      第36届台北金马影展 (1999)
      金马奖 最佳剧情片(提名)
      金马奖 最佳女主角(提名) 梁咏琪
      金马奖 最佳女配角(提名) 金燕玲
      金马奖 最佳摄影(提名) 李屏宾
      金马奖 最佳造型设计(提名) 奚仲文

      第19届香港电影金像奖 (2000)
      最佳导演(提名) 张艾嘉
      最佳编剧 关皓月,张艾嘉
      最佳女主角(提名) 梁咏琪
      最佳女配角(提名) 金燕玲
      最佳美术指导 文念中
      最佳服装造型设计(提名) 奚仲文

    ◎台词金句

      我们这样还象是在一起吗?
      那就分手。
      分手就分地干干净净,我不要那种拖拖拉拉的,我们以后不要再见面了。

    ◎幕后揭秘

      本片故事老套,但是作为言情片,却在细节,叙事上整齐圆满,表现出爱的激烈与哀愁。张艾嘉之纤细、敏感,感性的洞察力使本片让人到中年的中产阶级产生共鸣。婚外情在片中不仅正常,并且成为特权:只有婚外情者方可拥有浪漫的特权。影片采用梁咏琪、金城武等明星。缘份错失,时间流逝的表达体现出动人的集体记忆。本片上座率颇高,评论盛佳。
    INFO
    心动.Tempting.Heart.1999.1080p.WEB-DL.x264.AAC-Einrouse.mp4
    容器:MPEG-4
    总码率:15.2 Mb/s
    大小:12.1 GiB
    时长:1 h 54 min 25 s 840 ms

    视频(1):AVC
    Profile:Baseline@L3
    码率:15.0 Mb/s
    文件大小:12.0 GiB (99%)
    分辨率:1920x1080
    画面比例:16:9(1.778)
    像素宽高比:1.000
    帧率:25.000 FPS
    色彩空间:YUV
    色度抽样:4:2:0
    位深度:8 bits
    扫描方式:逐行扫描
    总帧数:171646
    编码库:x264 core 135
    编码设置:cabac=0 / ref=1 / deblock=0:0:0 / analyse=0:0 / me=dia / subme=0 / psy=1 / psy_rd=1.00:0.00 / mixed_ref=0 / me_range=16 / chroma_me=1 / trellis=0 / 8x8dct=0 / cqm=0 / deadzone=21,11 / fast_pskip=1 / chroma_qp_offset=0 / threads=8 / lookahead_threads=8 / sliced_threads=1 / slices=8 / nr=0 / decimate=1 / interlaced=0 / bluray_compat=0 / constrained_intra=0 / bframes=0 / weightp=0 / keyint=12 / keyint_min=1 / scenecut=0 / intra_refresh=0 / rc=abr / mbtree=0 / bitrate=15000 / ratetol=1.0 / qcomp=0.60 / qpmin=0 / qpmax=69 / qpstep=4 / ip_ratio=1.40 / aq=0

    音频(2):AAC
    大小:131 MiB (1%)
    码率:160 kb/s
    采样率:48.0 kHz
    声道数:2

    ====详细信息====
    ID                                       : 1
    Format                                   : AVC
    Format/Info                              : Advanced Video Codec
    Format profile                           : Baseline@L3
    Format settings, CABAC                   : No
    Format settings, ReFrames                : 1 frame
    Format settings, GOP                     : M=1, N=12
    Codec ID                                 : avc1
    Codec ID/Info                            : Advanced Video Coding
    Duration                                 : 1 h 54 min
    Bit rate                                 : 15.0 Mb/s
    Width                                    : 1 920 pixels
    Height                                   : 1 080 pixels
    Display aspect ratio                     : 16:9
    Frame rate mode                          : Constant
    Frame rate                               : 25.000 FPS
    Color space                              : YUV
    Chroma subsampling                       : 4:2:0
    Bit depth                                : 8 bits
    Scan type                                : Progressive
    Bits/(Pixel*Frame)                       : 0.289
    Stream size                              : 12.0 GiB (99%)
    Writing library                          : x264 core 135
    Encoding settings                        : cabac=0 / ref=1 / deblock=0:0:0 / analyse=0:0 / me=dia / subme=0 / psy=1 / psy_rd=1.00:0.00 / mixed_ref=0 / me_range=16 / chroma_me=1 / trellis=0 / 8x8dct=0 / cqm=0 / deadzone=21,11 / fast_pskip=1 / chroma_qp_offset=0 / threads=8 / lookahead_threads=8 / sliced_threads=1 / slices=8 / nr=0 / decimate=1 / interlaced=0 / bluray_compat=0 / constrained_intra=0 / bframes=0 / weightp=0 / keyint=12 / keyint_min=1 / scenecut=0 / intra_refresh=0 / rc=abr / mbtree=0 / bitrate=15000 / ratetol=1.0 / qcomp=0.60 / qpmin=0 / qpmax=69 / qpstep=4 / ip_ratio=1.40 / aq=0

    ID                                       : 2
    Format                                   : AAC
    Format/Info                              : Advanced Audio Codec
    Format profile                           : LC
    Codec ID                                 : 40
    Duration                                 : 1 h 54 min
    Bit rate mode                            : Constant
    Bit rate                                 : 160 kb/s
    Channel(s)                               : 2 channels
    Channel positions                        : Front: L R
    Sampling rate                            : 48.0 kHz
    Frame rate                               : 46.875 FPS (1024 spf)
    Compression mode                         : Lossy
    Stream size                              : 131 MiB (1%)
    Default                                  : Yes
    Alternate group                          : 1
    SCREENS






    购买主题 已有 11 人购买  本主题需向作者支付 100 大洋 才能浏览
    1,如有链接失效,可发站内消息给我,看到后会补上新链接!一定是发消息!帖子下留言我很可能看不到!
    2,我发的所有电影都是已经刮削好了的,文件夹里除了电影、字幕文件外,还包含NFO信息和海报,可以直接支持KODI、PLEX、EMBY、INFUSE等软件直接本地读取并加载海报墙,不需要挂梯子联网刮削!对海报墙没需求的亦可直接删除!
    3,我是个人用户,非管理组,发帖纯属个人爱好。别再问我为什么不用百度和115网盘发了,论坛对分享平台没有限制!已咨询过版主,使用115、百度以外的网盘不违规!
    回复

    使用道具 举报

  • TA的每日心情
    开心
    17 小时前
  • 签到天数: 574 天

    [LV.9]以坛为家II

    0

    主题

    2628

    帖子

    356

    积分

    超级影迷

    Rank: 6Rank: 6

    积分
    356
    发表于 2022-5-12 21:00:15 | 显示全部楼层
    版本不错,支持楼主发布
    回复

    使用道具 举报

  • TA的每日心情
    开心
    2 小时前
  • 签到天数: 137 天

    [LV.7]常住居民III

    0

    主题

    1404

    帖子

    166

    积分

    高级影迷

    Rank: 4

    积分
    166
    发表于 2022-5-12 21:14:27 | 显示全部楼层
    感謝製作,感謝分享。
    回复

    使用道具 举报

  • TA的每日心情

    10 小时前
  • 签到天数: 583 天

    [LV.9]以坛为家II

    0

    主题

    817

    帖子

    464

    积分

    专业影迷

    Rank: 8Rank: 8

    积分
    464
    发表于 2022-5-12 21:22:09 | 显示全部楼层
    版本不错支持楼主发布
    回复

    使用道具 举报

  • TA的每日心情
    擦汗
    昨天 00:50
  • 签到天数: 716 天

    [LV.9]以坛为家II

    6

    主题

    5739

    帖子

    340

    积分

    超级影迷

    Rank: 6Rank: 6

    积分
    340
    发表于 2022-5-12 21:32:15 | 显示全部楼层
    感谢分享!!!
    回复

    使用道具 举报

  • TA的每日心情
    开心
    昨天 21:46
  • 签到天数: 203 天

    [LV.7]常住居民III

    1

    主题

    4262

    帖子

    255

    积分

    超级影迷

    Rank: 6Rank: 6

    积分
    255
    发表于 2022-5-12 21:52:14 | 显示全部楼层
    感谢分享
    回复

    使用道具 举报

  • TA的每日心情
    开心
    昨天 17:27
  • 签到天数: 321 天

    [LV.8]以坛为家I

    0

    主题

    2652

    帖子

    135

    积分

    中级影迷

    Rank: 3Rank: 3

    积分
    135
    发表于 2022-5-12 22:07:42 | 显示全部楼层
    好的作品支持一下。
    回复

    使用道具 举报

  • TA的每日心情
    开心
    9 小时前
  • 签到天数: 67 天

    [LV.6]常住居民II

    2

    主题

    836

    帖子

    113

    积分

    中级影迷

    Rank: 3Rank: 3

    积分
    113
    发表于 2022-5-12 22:11:56 | 显示全部楼层
    你好啊,旧时光
    回复

    使用道具 举报

  • TA的每日心情
    开心
    昨天 17:40
  • 签到天数: 306 天

    [LV.8]以坛为家I

    0

    主题

    2668

    帖子

    144

    积分

    中级影迷

    Rank: 3Rank: 3

    积分
    144
    发表于 2022-5-12 22:13:46 | 显示全部楼层
    好的作品支持一下。
    回复

    使用道具 举报

  • TA的每日心情
    郁闷
    昨天 11:18
  • 签到天数: 310 天

    [LV.8]以坛为家I

    1

    主题

    1021

    帖子

    60

    积分

    初级影迷

    Rank: 2

    积分
    60
    发表于 2022-5-12 22:42:54 | 显示全部楼层
    谢谢分享
    非常好
    回复

    使用道具 举报

    您需要登录后才可以回帖 登录 | 立即注册

    本版积分规则

    QQ|Archiver|手机版|小黑屋|影迷乐园

    GMT+8, 2022-7-7 18:06 , Processed in 0.099943 second(s), 28 queries .

    Powered by Discuz! X3.4

    Copyright © 2001-2020, Tencent Cloud.

    快速回复 返回顶部 返回列表