请选择 进入手机版 | 继续访问电脑版

YMLY-影迷乐园-特效字幕 蓝光原盘 1080P 高清动漫电影电视剧

 找回密码
 立即注册
搜索
查看: 118|回复: 22

[香港] [电驴+百度][1999][[心动][国粤双语.简繁英字幕][金城武.梁咏琪][4.31GB][ISO]

[复制链接]
  • TA的每日心情
    奋斗
    2020-2-21 00:36
  • 签到天数: 656 天

    [LV.9]以坛为家II

    1万

    主题

    1万

    帖子

    28万

    积分

    超级版主

    与齐同行,是最初的梦想,也是一辈子的执着~

    Rank: 16Rank: 16Rank: 16Rank: 16

    积分
    286622

    内测勋章最佳新人十二生肖之猴VIP包月勋章影迷男神小土豪勋章土豪勋章富甲一方精华勋章金话筒主题达人灌水之王

    发表于 4 天前 | 显示全部楼层 |阅读模式
    下载说明:

    百度云网盘分享极其不稳定,如有链接失效,请第一时间站内短消息通知我,上线后会第一时间补发!请大家多多谅解!电驴链接只能115会员离线下载,其它工具都下载不了!




    ◎译  名 心动/Sam Dung/Tempting Heart
    ◎片  名 心動
    ◎年  代 1999
    ◎产  地 中国香港,日本
    ◎类  别 爱情
    ◎语  言 粤语,日语
    ◎上映日期 1999-09-23(中国香港)
    ◎IMDb评分  7.1/10 from 667 users
    ◎IMDb链接  https://www.imdb.com/title/tt0215240/
    ◎豆瓣评分 8.2/10 from 82223 users
    ◎豆瓣链接 https://movie.douban.com/subject/1292289/
    ◎片  长 115分钟(日本)
    ◎导  演 张艾嘉 Sylvia Chang
    ◎编  剧 关皓月 Cat Kwan / 张艾嘉 Sylvia Chang
    ◎主  演 金城武 Takeshi Kaneshiro
           梁咏琪 Gigi Leung
           莫文蔚 Karen Mok
           张艾嘉 Sylvia Chang
           苏永康 William So Wing Hong
           金燕玲 Elaine Jin
           戴立忍 Leon Dai
           杨雪仪 Cher Yeung
           唐文龙 Michael Tong
           谷祖琳 Jolane Koo
           陈桂芬 Brenda Chan
           陈文媛 Bobo Chan

    ◎简  介

      女导演Cheryl(张艾嘉 饰)跟编剧商量准备开拍一部关于初恋的爱情故事,她决定把故事时间订在1977年,那时候的女主角小柔(梁咏琪 饰)只有17岁,在舞会上遇到了男主角浩君(金城武 饰)二人一见钟情,很快他们便陷入了热恋之中。小柔有一个好朋友叫陈莉(莫文蔚 饰),小柔除了跟她诉说心事以为,更是逃过妈妈追问出外过夜的好借口。浩君与小柔的家人很快知道了他们的事,两方家长都要求他们分手了断,伤心欲绝的小柔找到陈莉,原来陈莉一直喜欢小柔,令小柔惊吓不已。
      多年后,浩君与小柔在日本重逢,就算他们各自都有了另一半,但还是阻止不了他们再次走进对方的生活。

    ◎获奖情况

      第36届台北金马影展  (1999)
      金马奖最佳剧情片(提名)
      金马奖最佳女主角(提名) 梁咏琪
      金马奖最佳女配角(提名) 金燕玲
      金马奖最佳摄影(提名) 李屏宾
      金马奖最佳造型设计(提名) 奚仲文
      
      第19届香港电影金像奖  (2000)
      最佳导演(提名) 张艾嘉
      最佳编剧 关皓月 / 张艾嘉
      最佳女主角(提名) 梁咏琪
      最佳女配角(提名) 金燕玲
      最佳美术指导 文念中
      最佳服装造型设计(提名) 奚仲文

    1. General
    2. Format                         : MPEG-PS
    3. File size                      : 1 024 MiB
    4. Duration                       : 31 min 27 s
    5. Overall bit rate mode          : Variable
    6. Overall bit rate               : 4 552 kb/s

    7. Video
    8. ID                             : 224 (0xE0)
    9. Format                         : MPEG Video
    10. Format version                 : Version 2
    11. Format profile                 : [email protected]
    12. Format settings                : BVOP
    13. Format settings, BVOP          : Yes
    14. Format settings, Matrix        : Default
    15. Format settings, GOP           : M=3, N=13
    16. Format settings, picture struc : Frame
    17. Duration                       : 31 min 27 s
    18. Bit rate mode                  : Variable
    19. Bit rate                       : 3 693 kb/s
    20. Maximum bit rate               : 8 000 kb/s
    21. Width                          : 720 pixels
    22. Height                         : 480 pixels
    23. Display aspect ratio           : 4:3
    24. Frame rate                     : 29.970 (30000/1001) FPS
    25. Standard                       : NTSC
    26. Color space                    : YUV
    27. Chroma subsampling             : 4:2:0
    28. Bit depth                      : 8 bits
    29. Scan type                      : Interlaced
    30. Scan order                     : Top Field First
    31. Compression mode               : Lossy
    32. Bits/(Pixel*Frame)             : 0.357
    33. Time code of first frame       : 01:29:46:27
    34. Time code source               : Group of pictures header
    35. GOP, Open/Closed               : Open
    36. Stream size                    : 831 MiB (81%)
    37. Color primaries                : BT.601 PAL
    38. Transfer characteristics       : BT.470 System B/G
    39. Matrix coefficients            : BT.470 System B/G

    40. Audio #1
    41. ID                             : 189 (0xBD)-128 (0x80)
    42. Format                         : AC-3
    43. Format/Info                    : Audio Coding 3
    44. Commercial name                : Dolby Digital
    45. Muxing mode                    : DVD-Video
    46. Duration                       : 31 min 27 s
    47. Bit rate mode                  : Constant
    48. Bit rate                       : 384 kb/s
    49. Channel(s)                     : 6 channels
    50. Channel layout                 : L R C LFE Ls Rs
    51. Sampling rate                  : 48.0 kHz
    52. Frame rate                     : 31.250 FPS (1536 SPF)
    53. Bit depth                      : 16 bits
    54. Compression mode               : Lossy
    55. Delay relative to video        : -108 ms
    56. Stream size                    : 86.4 MiB (8%)
    57. Service kind                   : Complete Main

    58. Audio #2
    59. ID                             : 189 (0xBD)-129 (0x81)
    60. Format                         : AC-3
    61. Format/Info                    : Audio Coding 3
    62. Commercial name                : Dolby Digital
    63. Muxing mode                    : DVD-Video
    64. Duration                       : 31 min 27 s
    65. Bit rate mode                  : Constant
    66. Bit rate                       : 384 kb/s
    67. Channel(s)                     : 6 channels
    68. Channel layout                 : L R C LFE Ls Rs
    69. Sampling rate                  : 48.0 kHz
    70. Frame rate                     : 31.250 FPS (1536 SPF)
    71. Bit depth                      : 16 bits
    72. Compression mode               : Lossy
    73. Delay relative to video        : -108 ms
    74. Stream size                    : 86.4 MiB (8%)
    75. Service kind                   : Complete Main

    76. Text #1
    77. ID                             : 189 (0xBD)-32 (0x20)
    78. Format                         : RLE
    79. Format/Info                    : Run-length encoding
    80. Muxing mode                    : DVD-Video
    81. Duration                       : 31 min 24 s
    82. Delay relative to video        : 600 ms

    83. Text #2
    84. ID                             : 189 (0xBD)-33 (0x21)
    85. Format                         : RLE
    86. Format/Info                    : Run-length encoding
    87. Muxing mode                    : DVD-Video
    88. Duration                       : 31 min 24 s
    89. Delay relative to video        : 600 ms

    90. Text #3
    91. ID                             : 189 (0xBD)-34 (0x22)
    92. Format                         : RLE
    93. Format/Info                    : Run-length encoding
    94. Muxing mode                    : DVD-Video
    95. Duration                       : 31 min 24 s
    96. Delay relative to video        : 600 ms

    97. Menu
    复制代码









    购买主题 已有 1 人购买  本主题需向作者支付 10 大洋 才能浏览
    郑重声明:
    本人提供的所有影视作品均是在网上搜集,任何涉及商业盈利目的均不得使用,否则产生的一切后果将由您自己承担!
    本人不对本人所发布的任何内容负任何法律责任!该下载内容仅做宽带测试使用,请在下载后24小时内删除。请购买正版!
    本人列出的文件没有保存在本站的服务器上,本人仅负责连接,本人对被传播文件的内容一无所知。
    如侵犯视频原作者或发行商版权,请联系本人删除!
    回复

    使用道具 举报

  • TA的每日心情
    开心
    昨天 08:52
  • 签到天数: 225 天

    [LV.7]常住居民III

    20

    主题

    2600

    帖子

    695

    积分

    专业影迷

    Rank: 8Rank: 8

    积分
    695
    发表于 4 天前 | 显示全部楼层
    感谢分享。
    回复

    使用道具 举报

  • TA的每日心情
    奋斗
    23 小时前
  • 签到天数: 538 天

    [LV.9]以坛为家II

    34

    主题

    4922

    帖子

    2041

    积分

    稀有影迷

    Rank: 12Rank: 12Rank: 12

    积分
    2041
    发表于 4 天前 | 显示全部楼层
    感谢楼主分享
    回复

    使用道具 举报

  • TA的每日心情

    3 小时前
  • 签到天数: 342 天

    [LV.8]以坛为家I

    9

    主题

    3277

    帖子

    594

    积分

    专业影迷

    Rank: 8Rank: 8

    积分
    594
    发表于 4 天前 | 显示全部楼层
    第19届香港电影金像奖 最佳导演(提名) 张艾嘉
    回复

    使用道具 举报

  • TA的每日心情
    开心
    昨天 23:59
  • 签到天数: 158 天

    [LV.7]常住居民III

    2

    主题

    1583

    帖子

    255

    积分

    超级影迷

    Rank: 6Rank: 6

    积分
    255
    发表于 4 天前 | 显示全部楼层
    谢谢楼主分享优质资源,希望影迷乐园越办越好!~
    回复

    使用道具 举报

  • TA的每日心情
    奋斗
    3 小时前
  • 签到天数: 16 天

    [LV.4]偶尔看看III

    1

    主题

    227

    帖子

    25

    积分

    初级影迷

    Rank: 2

    积分
    25
    发表于 4 天前 | 显示全部楼层
    回复

    使用道具 举报

  • TA的每日心情
    开心
    23 小时前
  • 签到天数: 205 天

    [LV.7]常住居民III

    9

    主题

    2017

    帖子

    368

    积分

    超级影迷

    Rank: 6Rank: 6

    积分
    368

    小土豪勋章

    发表于 3 天前 | 显示全部楼层
    看看这个版本
    回复

    使用道具 举报

  • TA的每日心情
    慵懒
    23 小时前
  • 签到天数: 677 天

    [LV.9]以坛为家II

    5

    主题

    5293

    帖子

    320

    积分

    超级影迷

    Rank: 6Rank: 6

    积分
    320
    发表于 3 天前 | 显示全部楼层

    谢谢分享   
    回复

    使用道具 举报

  • TA的每日心情
    开心
    14 小时前
  • 签到天数: 59 天

    [LV.5]常住居民I

    0

    主题

    655

    帖子

    102

    积分

    中级影迷

    Rank: 3Rank: 3

    积分
    102
    发表于 3 天前 | 显示全部楼层
    谢谢分享啊
    回复

    使用道具 举报

  • TA的每日心情

    23 小时前
  • 签到天数: 5 天

    [LV.2]偶尔看看I

    0

    主题

    53

    帖子

    5

    积分

    入门影迷

    Rank: 1

    积分
    5
    发表于 3 天前 | 显示全部楼层
    没有看过这部戏,感谢分享。
    回复

    使用道具 举报

    您需要登录后才可以回帖 登录 | 立即注册

    本版积分规则

    QQ|Archiver|手机版|小黑屋|影迷乐园

    GMT+8, 2022-5-17 23:20 , Processed in 0.127221 second(s), 27 queries .

    Powered by Discuz! X3.4

    Copyright © 2001-2020, Tencent Cloud.

    快速回复 返回顶部 返回列表