请选择 进入手机版 | 继续访问电脑版

YMLY-影迷乐园-特效字幕 蓝光原盘 1080P 高清动漫电影电视剧

 找回密码
 立即注册
搜索
查看: 163|回复: 37

[WEB-DL] [115+百度][2017][1080P][速度与激情8.导演剪辑加长版148min][外挂简中.中英字幕][8.17GB][MKV][The.Fate.of.the.Furious.Extended.Directors.Cut.2017.1080p.AMZN.WEBRip.DD5.1.x264-PLAYREADY]

[复制链接]
  • TA的每日心情
    奋斗
    2020-2-21 00:36
  • 签到天数: 656 天

    [LV.9]以坛为家II

    1万

    主题

    1万

    帖子

    28万

    积分

    超级版主

    与齐同行,是最初的梦想,也是一辈子的执着~

    Rank: 16Rank: 16Rank: 16Rank: 16

    积分
    286559

    内测勋章最佳新人十二生肖之猴VIP包月勋章影迷男神小土豪勋章土豪勋章富甲一方精华勋章金话筒主题达人灌水之王

    发表于 4 天前 | 显示全部楼层 |阅读模式
    下载说明:

    百度云网盘分享极其不稳定,如有链接失效,请第一时间站内短消息通知我,上线后会第一时间补发!请大家多多谅解!电驴链接只能115会员离线下载,其它工具都下载不了!


    外挂字幕取自字幕库



    ◎译  名 速度与激情8/Fast & Furious 8/Fast 8/Fast Eight/Furious 8/Furious Eight/The Fast and the Furious 8/狂野时速8(港)/玩命关头8(台)/速8/速度8/速激8
    ◎片  名 The Fate of the Furious
    ◎年  代 2017
    ◎产  地 中国大陆,美国,日本
    ◎类  别 动作 / 犯罪
    ◎语  言 英语,俄语,西班牙语
    ◎上映日期 2017-04-12(法国) / 2017-04-14(美国/中国大陆)
    ◎IMDb评分  6.6/10 from 226854 users
    ◎IMDb链接  https://www.imdb.com/title/tt4630562/
    ◎豆瓣评分 7.0/10 from 322079 users
    ◎豆瓣链接 https://movie.douban.com/subject/26260853/
    ◎片  长 136分钟
    ◎导  演 F·加里·格雷 F. Gary Gray
    ◎编  剧 盖瑞·斯科特·汤普森 Gary Scott Thompson / 克里斯·摩根 Chris Morgan
    ◎主  演 范·迪塞尔 Vin Diesel
           杰森·斯坦森 Jason Statham
           道恩·强森 Dwayne Johnson
           米歇尔·罗德里格兹 Michelle Rodriguez
           泰瑞斯·吉布森 Tyrese Gibson
           卢达·克里斯 Ludacris
           查理兹·塞隆 Charlize Theron
           库尔特·拉塞尔 Kurt Russell
           娜塔莉·伊曼纽尔 Nathalie Emmanuel
           卢克·伊万斯 Luke Evans
           埃尔莎·帕塔奇 Elsa Pataky
           克里斯托弗·海维尤 Kristofer Hivju
           斯科特·伊斯特伍德 Scott Eastwood
           帕特里克·圣埃斯普利特 Patrick St. Esprit
           卢克·霍克斯 Luke Hawx
           奥莱克·克鲁帕 Olek Krupa
           加里·维克斯 Gary Weeks
           马修·康威尔 Matthew Cornwell
           特戈·卡尔德隆 Tego Calderon
           唐·奥马尔 Don Omar
           塞莱斯汀·考尼尔 Celestin Cornielle
           布莱恩·鲍曼 Brian Bowman
           马科·查卡 Marko Caka
           David Dman Escobar David Dman Escobar
           海伦·米伦 Helen Mirren
           巴迪·沃特金斯 Buddy Watkins

    ◎简  介

      多米尼克(范·迪塞尔 Vin Diesel 饰)与莱蒂(米歇尔·罗德里格兹 Michelle Rodriguez 饰)共度蜜月,布莱恩与米娅退出了赛车界,这支曾环游世界的顶级飞车家族队伍的生活正渐趋平淡。然而,一位神秘女子Cipher(查理兹·塞隆 Charlize T heron 饰)的出现,令整个队伍卷入信任与背叛的危机,面临前所未有的考验。

    ◎获奖情况

      第4届豆瓣电影年度榜单  (2017)
      4月最受关注电影

    1. General
    2. Unique ID                      : 176317317918536680306554455302758973605 (0x84A57AF04F4A17FE96E067E2BB4FC0A5)
    3. The.Fate.of.the.Furious.Extended.Directors.Cut.2017.1080p.AMZN.WEBRip.DD5.1.x264-PLAYREADY\The.Fate.of.the.Furious.Extended.Directors.Cut.2017.1080p.AMZN.WEBRip.DD5.1.x264-PLAYREADY.mkv
    4. Format                         : Matroska
    5. Format version                 : Version 4
    6. File size                      : 8.17 GiB
    7. Duration                       : 2 h 28 min
    8. Overall bit rate mode          : Variable
    9. Overall bit rate               : 7 891 kb/s
    10. Encoded date                   : UTC 2017-06-29 21:15:34
    11. Writing application            : mkvmerge v8.3.0 ('Over the Horizon') 32bit
    12. Writing library                : libebml v1.3.1 + libmatroska v1.4.2

    13. Video
    14. ID                             : 1
    15. Format                         : AVC
    16. Format/Info                    : Advanced Video Codec
    17. Format profile                 : [email protected]
    18. Format settings                : CABAC / 4 Ref Frames
    19. Format settings, CABAC         : Yes
    20. Format settings, Reference fra : 4 frames
    21. Codec ID                       : V_MPEG4/ISO/AVC
    22. Duration                       : 2 h 28 min
    23. Bit rate mode                  : Variable
    24. Bit rate                       : 7 249 kb/s
    25. Maximum bit rate               : 15.0 Mb/s
    26. Width                          : 1 920 pixels
    27. Height                         : 800 pixels
    28. Display aspect ratio           : 2.40:1
    29. Frame rate mode                : Constant
    30. Frame rate                     : 23.976 (24000/1001) FPS
    31. Color space                    : YUV
    32. Chroma subsampling             : 4:2:0
    33. Bit depth                      : 8 bits
    34. Scan type                      : Progressive
    35. Bits/(Pixel*Frame)             : 0.197
    36. Stream size                    : 7.51 GiB (92%)
    37. Default                        : Yes
    38. Forced                         : No
    39. Color range                    : Limited
    40. Color primaries                : BT.709
    41. Transfer characteristics       : BT.709
    42. Matrix coefficients            : BT.709

    43. Audio
    44. ID                             : 2
    45. Format                         : E-AC-3
    46. Format/Info                    : Enhanced AC-3
    47. Commercial name                : Dolby Digital Plus
    48. Codec ID                       : A_EAC3
    49. Duration                       : 2 h 28 min
    50. Bit rate mode                  : Constant
    51. Bit rate                       : 640 kb/s
    52. Channel(s)                     : 6 channels
    53. Channel layout                 : L R C LFE Ls Rs
    54. Sampling rate                  : 48.0 kHz
    55. Frame rate                     : 31.250 FPS (1536 SPF)
    56. Compression mode               : Lossy
    57. Stream size                    : 679 MiB (8%)
    58. Service kind                   : Complete Main
    59. Default                        : Yes
    60. Forced                         : No

    61. Text
    62. ID                             : 3
    63. Format                         : UTF-8
    64. Codec ID                       : S_TEXT/UTF8
    65. Codec ID/Info                  : UTF-8 Plain Text
    66. Duration                       : 2 h 27 min
    67. Bit rate                       : 63 b/s
    68. Count of elements              : 2490
    69. Stream size                    : 68.7 KiB (0%)
    70. Title                          : English
    71. Default                        : No
    72. Forced                         : No
    复制代码









    购买主题 已有 2 人购买  本主题需向作者支付 10 大洋 才能浏览
    郑重声明:
    本人提供的所有影视作品均是在网上搜集,任何涉及商业盈利目的均不得使用,否则产生的一切后果将由您自己承担!
    本人不对本人所发布的任何内容负任何法律责任!该下载内容仅做宽带测试使用,请在下载后24小时内删除。请购买正版!
    本人列出的文件没有保存在本站的服务器上,本人仅负责连接,本人对被传播文件的内容一无所知。
    如侵犯视频原作者或发行商版权,请联系本人删除!
    回复

    使用道具 举报

  • TA的每日心情
    开心
    昨天 08:52
  • 签到天数: 225 天

    [LV.7]常住居民III

    20

    主题

    2600

    帖子

    695

    积分

    专业影迷

    Rank: 8Rank: 8

    积分
    695
    发表于 4 天前 | 显示全部楼层
    感谢分享。
    回复

    使用道具 举报

  • TA的每日心情
    开心
    21 小时前
  • 签到天数: 428 天

    [LV.9]以坛为家II

    0

    主题

    731

    帖子

    747

    积分

    专业影迷

    Rank: 8Rank: 8

    积分
    747
    发表于 4 天前 | 显示全部楼层
    能剥离字幕吧~~~~~~~
    回复

    使用道具 举报

  • TA的每日心情
    奋斗
    1 小时前
  • 签到天数: 16 天

    [LV.4]偶尔看看III

    1

    主题

    216

    帖子

    23

    积分

    入门影迷

    Rank: 1

    积分
    23
    发表于 4 天前 | 显示全部楼层
    回复

    使用道具 举报

  • TA的每日心情
    开心
    21 小时前
  • 签到天数: 205 天

    [LV.7]常住居民III

    9

    主题

    2017

    帖子

    368

    积分

    超级影迷

    Rank: 6Rank: 6

    积分
    368

    小土豪勋章

    发表于 3 天前 | 显示全部楼层
    看看这个版本
    回复

    使用道具 举报

  • TA的每日心情
    慵懒
    21 小时前
  • 签到天数: 677 天

    [LV.9]以坛为家II

    5

    主题

    5293

    帖子

    320

    积分

    超级影迷

    Rank: 6Rank: 6

    积分
    320
    发表于 3 天前 | 显示全部楼层

    谢谢分享   
    回复

    使用道具 举报

  • TA的每日心情
    开心
    12 小时前
  • 签到天数: 59 天

    [LV.5]常住居民I

    0

    主题

    655

    帖子

    102

    积分

    中级影迷

    Rank: 3Rank: 3

    积分
    102
    发表于 3 天前 | 显示全部楼层
    谢谢分享啊
    回复

    使用道具 举报

  • TA的每日心情
    开心
    15 小时前
  • 签到天数: 50 天

    [LV.5]常住居民I

    0

    主题

    492

    帖子

    38

    积分

    初级影迷

    Rank: 2

    积分
    38
    发表于 3 天前 | 显示全部楼层
    谢谢分享   !!!
    回复

    使用道具 举报

  • TA的每日心情
    开心
    13 小时前
  • 签到天数: 356 天

    [LV.8]以坛为家I

    0

    主题

    4369

    帖子

    667

    积分

    专业影迷

    Rank: 8Rank: 8

    积分
    667
    发表于 3 天前 | 显示全部楼层
    感谢分享好资源
    回复

    使用道具 举报

  • TA的每日心情
    开心
    9 小时前
  • 签到天数: 519 天

    [LV.9]以坛为家II

    0

    主题

    6351

    帖子

    366

    积分

    超级影迷

    Rank: 6Rank: 6

    积分
    366
    发表于 3 天前 | 显示全部楼层
    谢谢分享精彩电影!
    回复

    使用道具 举报

    您需要登录后才可以回帖 登录 | 立即注册

    本版积分规则

    QQ|Archiver|手机版|小黑屋|影迷乐园

    GMT+8, 2022-5-17 21:35 , Processed in 0.099891 second(s), 27 queries .

    Powered by Discuz! X3.4

    Copyright © 2001-2020, Tencent Cloud.

    快速回复 返回顶部 返回列表