请选择 进入手机版 | 继续访问电脑版

YMLY-影迷乐园-特效字幕 蓝光原盘 1080P 高清动漫电影电视剧

 找回密码
 立即注册
搜索
查看: 407|回复: 29

[修复版] [阿里][2006][1080p][剃头匠][独家修复][内嵌中英字幕][6.79GB][Mkv][The.Old.Barber.2006.AI.1080p.HDTV.x264.AC3-Milton]

[复制链接]
  • TA的每日心情
    奋斗
    2022-6-7 19:43
  • 签到天数: 82 天

    [LV.6]常住居民II

    72

    主题

    2116

    帖子

    1431

    积分

    资深影迷

    Rank: 10Rank: 10Rank: 10

    积分
    1431

    小土豪勋章土豪勋章

    发表于 2022-5-17 19:54:47 | 显示全部楼层 |阅读模式
    修复用到的源文件为NGB的HDTV版本,感谢!
    因为是HDTV版本,所以左上角会有CHC的台标,介意勿买!
    源文件720p画质,小屏幕看的话基本没什么问题,大屏幕电视看感觉有点糊,就试着修复一下。
    本次修复后,画质提升观感自我评分8分(满分10分)

    文件名:剃头匠.The.Old.Barber.2006.AI.1080p.HDTV.x264.AC3-Milton


    ◎译  名 The Old Barber
    ◎片  名 剃头匠
    ◎年  代 2006
    ◎产  地 中国大陆
    ◎类  别 剧情 / 传记
    ◎语  言 汉语普通话
    ◎上映日期 2006-10-24
    ◎豆瓣评星 ★★★★✦
    ◎豆瓣评分 9.2/10 from 17,422 users
    ◎豆瓣链接 https://movie.douban.com/subject/3097352/
    ◎片  长 100分钟
    ◎导  演 哈斯朝鲁 / Chaolu Hasi
    ◎演  员 靖奎 / Kui Jing
          由立平 / Liping You
          宋戈 / Ge Song | 饰 板寸王
    ◎编  剧 冉平 / Ping Ran
    ◎制  片  人 哈斯朝鲁 / Chaolu Hasi

    ◎简  介 

      敬大爷如今是个九十三岁高龄的耄耋老人,他有八十多年的剃头经历,至今仍住在北京胡同的大杂院里,过着北京城内最底层最普通也是最平淡的生活,他经常给老主顾们上门剃头、聊天,回家后拨弄着自己那座每天慢五分钟的老座钟,他希望每个人(也包括他自己)干干净净的来到人世,也希望人们干干净净利利索索的离去……
      电影《剃头匠》以纪录和讲述的形式描述了这样一个老人恬淡而平凡的生活。
    INFO
    General
    Unique ID                      : 40987130481997866511419864228873203601 (0x1ED5D58DABC9DE1FDD6EE7274EBD6F91)
    Complete name                  : E:\待发布\剃头匠.The.Old.Barber.2006.AI.1080p.HDTV.x264.AC3-Milton\剃头匠.The.Old.Barber.2006.AI.1080p.HDTV.x264.AC3-Milton.mkv
    Format                         : Matroska
    Format version                 : Version 4
    File size                      : 6.80 GiB
    Duration                       : 1 h 39 min
    Overall bit rate               : 9 755 kb/s
    Encoded date                   : UTC 2022-05-15 04:58:16
    Writing application            : mkvmerge v67.0.0 ('Under Stars') 64-bit
    Writing library                : libebml v1.4.2 + libmatroska v1.6.4 / ShanaEncoder

    Video
    ID                             : 1
    Format                         : AVC
    Format/Info                    : Advanced Video Codec
    Format profile                 : High@L4
    Format settings                : CABAC / 8 Ref Frames
    Format settings, CABAC         : Yes
    Format settings, Reference fra : 8 frames
    Codec ID                       : V_MPEG4/ISO/AVC
    Duration                       : 1 h 39 min
    Bit rate                       : 9 307 kb/s
    Width                          : 1 920 pixels
    Height                         : 1 080 pixels
    Display aspect ratio           : 16:9
    Frame rate mode                : Constant
    Frame rate                     : 25.000 FPS
    Color space                    : YUV
    Chroma subsampling             : 4:2:0
    Bit depth                      : 8 bits
    Scan type                      : Progressive
    Bits/(Pixel*Frame)             : 0.180
    Stream size                    : 6.48 GiB (95%)
    Writing library                : x264 core 164 r3085 0bb85e8
    Encoding settings              : opencl=1 / cabac=1 / ref=8 / deblock=1:0:0 / analyse=0x3:0x133 / me=umh / subme=9 / psy=1 / psy_rd=1.00:0.15 / mixed_ref=1 / me_range=16 / chroma_me=1 / trellis=2 / 8x8dct=1 / cqm=0 / deadzone=21,11 / fast_pskip=1 / chroma_qp_offset=-3 / threads=18 / lookahead_threads=1 / sliced_threads=0 / nr=0 / decimate=1 / interlaced=0 / bluray_compat=0 / constrained_intra=0 / bframes=3 / b_pyramid=2 / b_adapt=2 / b_bias=0 / direct=3 / weightb=1 / open_gop=0 / weightp=2 / keyint=250 / keyint_min=25 / scenecut=40 / intra_refresh=0 / rc_lookahead=60 / rc=crf / mbtree=1 / crf=19.0 / qcomp=0.60 / qpmin=0 / qpmax=69 / qpstep=4 / ip_ratio=1.40 / aq=1:1.00
    Default                        : Yes
    Forced                         : No

    Audio
    ID                             : 2
    Format                         : AC-3
    Format/Info                    : Audio Coding 3
    Commercial name                : Dolby Digital
    Codec ID                       : A_AC3
    Duration                       : 1 h 39 min
    Bit rate mode                  : Constant
    Bit rate                       : 448 kb/s
    Channel(s)                     : 6 channels
    Channel layout                 : L R C LFE Ls Rs
    Sampling rate                  : 48.0 kHz
    Frame rate                     : 31.250 FPS (1536 SPF)
    Compression mode               : Lossy
    Stream size                    : 320 MiB (5%)
    Language                       : Chinese
    Service kind                   : Complete Main
    Default                        : Yes
    Forced                         : No
    SCREENS






    购买主题 已有 3 人购买  本主题需向作者支付 100 大洋 才能浏览
    1,如有链接失效,可发站内消息给我,看到后会补上新链接!一定是发消息!帖子下留言我很可能看不到!
    2,我发的所有电影都是已经刮削好了的,文件夹里除了电影、字幕文件外,还包含NFO信息和海报,可以直接支持KODI、PLEX、EMBY、INFUSE等软件直接本地读取并加载海报墙,不需要挂梯子联网刮削!对海报墙没需求的亦可直接删除!
    3,我是个人用户,非管理组,发帖纯属个人爱好。别再问我为什么不用百度和115网盘发了,论坛对分享平台没有限制!已咨询过版主,使用115、百度以外的网盘不违规!
    回复

    使用道具 举报

  • TA的每日心情
    开心
    9 小时前
  • 签到天数: 67 天

    [LV.6]常住居民II

    2

    主题

    836

    帖子

    113

    积分

    中级影迷

    Rank: 3Rank: 3

    积分
    113
    发表于 2022-5-17 21:55:48 | 显示全部楼层
    你好,旧时光
    回复

    使用道具 举报

  • TA的每日心情
    难过
    16 小时前
  • 签到天数: 322 天

    [LV.8]以坛为家I

    15

    主题

    2665

    帖子

    171

    积分

    高级影迷

    Rank: 4

    积分
    171
    发表于 2022-5-17 23:13:31 | 显示全部楼层
    刷个新版本
    回复

    使用道具 举报

  • TA的每日心情
    开心
    8 小时前
  • 签到天数: 550 天

    [LV.9]以坛为家II

    0

    主题

    6683

    帖子

    351

    积分

    超级影迷

    Rank: 6Rank: 6

    积分
    351
    发表于 2022-5-18 11:23:10 | 显示全部楼层
    谢谢楼主分享!
    回复

    使用道具 举报

  • TA的每日心情
    擦汗
    3 天前
  • 签到天数: 53 天

    [LV.5]常住居民I

    0

    主题

    542

    帖子

    29

    积分

    初级影迷

    Rank: 2

    积分
    29
    发表于 2022-5-18 11:28:06 | 显示全部楼层
    好资源啊 真的不错
    回复

    使用道具 举报

  • TA的每日心情
    擦汗
    6 天前
  • 签到天数: 330 天

    [LV.8]以坛为家I

    114

    主题

    3953

    帖子

    575

    积分

    专业影迷

    Rank: 8Rank: 8

    积分
    575
    发表于 2022-5-18 20:19:22 | 显示全部楼层
    谢谢楼主分享!
    回复

    使用道具 举报

  • TA的每日心情
    开心
    8 小时前
  • 签到天数: 16 天

    [LV.4]偶尔看看III

    0

    主题

    62

    帖子

    50

    积分

    初级影迷

    Rank: 2

    积分
    50
    发表于 2022-5-19 11:50:47 | 显示全部楼层
    好经典的电影,看过好几遍了
    回复

    使用道具 举报

  • TA的每日心情
    奋斗
    11 小时前
  • 签到天数: 56 天

    [LV.5]常住居民I

    5

    主题

    656

    帖子

    92

    积分

    中级影迷

    Rank: 3Rank: 3

    积分
    92
    发表于 2022-5-21 00:22:19 | 显示全部楼层
    感谢分享~~~!
    回复

    使用道具 举报

  • TA的每日心情

    昨天 09:51
  • 签到天数: 91 天

    [LV.6]常住居民II

    1

    主题

    769

    帖子

    202

    积分

    高级影迷

    Rank: 4

    积分
    202
    发表于 2022-5-21 11:00:13 | 显示全部楼层
    回复

    使用道具 举报

  • TA的每日心情
    开心
    2022-6-10 00:06
  • 签到天数: 24 天

    [LV.4]偶尔看看III

    0

    主题

    69

    帖子

    47

    积分

    初级影迷

    Rank: 2

    积分
    47
    发表于 2022-5-22 23:51:54 | 显示全部楼层
    刷个新版本
    回复

    使用道具 举报

    您需要登录后才可以回帖 登录 | 立即注册

    本版积分规则

    QQ|Archiver|手机版|小黑屋|影迷乐园

    GMT+8, 2022-7-7 18:43 , Processed in 0.099306 second(s), 28 queries .

    Powered by Discuz! X3.4

    Copyright © 2001-2020, Tencent Cloud.

    快速回复 返回顶部 返回列表