请选择 进入手机版 | 继续访问电脑版

YMLY-影迷乐园-特效字幕 蓝光原盘 1080P 高清动漫电影电视剧

 找回密码
 立即注册
搜索
查看: 479|回复: 40

[修复版] [阿里+百度][2006][1080p][光荣的愤怒][独家修复][内嵌简中字幕][6.79GB][Mkv][Trouble Makers.2006.AI.1080p.x264.AC3-Milton]

[复制链接]
  • TA的每日心情
    奋斗
    2022-6-7 19:43
  • 签到天数: 82 天

    [LV.6]常住居民II

    72

    主题

    2116

    帖子

    1431

    积分

    资深影迷

    Rank: 10Rank: 10Rank: 10

    积分
    1431

    小土豪勋章土豪勋章

    发表于 2022-5-17 20:24:56 | 显示全部楼层 |阅读模式
    本片一直找不到好资源,就用手里多年前收的DVDRIP版本修了,效果差强人意。
    国产比较冷门的佳作,曹保平导演早期作品,代表作之一。当年剧本被总菊驳回了六七次才通过!
    本次修复后,画质提升观感自我评分5分(满分10分),能看就是了,但别报太高期望

    文件名:光荣的愤怒.Trouble Makers.2006.AI.1080p.x264.AC3-Milton


    ◎译  名 Trouble Makers / 乡村行动
    ◎片  名 光荣的愤怒
    ◎年  代 2006
    ◎产  地 中国大陆
    ◎类  别 剧情
    ◎语  言 汉语普通话
    ◎上映日期 2006-06-21(中国大陆)
    ◎豆瓣评星 ★★★★☆
    ◎豆瓣评分 8.2/10 from 27,189 users
    ◎豆瓣链接 https://movie.douban.com/subject/1920620/
    ◎片  长 101分钟
    ◎导  演 曹保平 / Baoping Cao
    ◎演  员 吴刚 / Gang Wu | 饰 叶光荣
          王砚辉 / Yanhui Wang | 饰 熊老三
          李晓波 / Xiaobo Li | 饰 熊老大
          朱义 / Yi Zhu | 饰 熊老四
          孔庆三 / Qingsan Kong | 饰 熊老二
          蒲小虎 / Xiaohu Pu | 饰 狗卵
          李昌元 / Changyuan Li | 饰 大旺
          李小川 / Xiaochuan Li | 饰 麻面
          贺云庆 / Yunqing He | 饰 水根
          江钰婷 / Yuting Jiang | 饰 秀凤
          傅小源 / Xiaoyuan Fu | 饰 光彩
          冯自立 / Zili Feng | 饰 满面胡
          吴暇 / Xia Wu | 饰 小翠
          杜丽慧 / Lihui Du | 饰 大旺老婆
    ◎编  剧 曹保平 / Baoping Cao
          阙迪伟 / Diwei Que
    ◎制  片  人 曹保平 / Baoping Cao
          张耀力 / Yaoli Zhang
          林密 / Cindy Lin
    ◎服  装 丁冀燕 / Jiyan Ding
    ◎副  导  演 冯自立 / Zili Feng
          傅小源 / Xiaoyuan Fu

    ◎简  介 

      云南黑井村,熊家四兄弟横行乡里,老大(李晓波饰)粗鲁地教训了来叫板的狗卵(蒲小虎饰)、老二(孔庆三饰)是村里的会计,为人狡诈。老三(王砚辉饰)是阴险的村长,手段狠毒。老四(朱义饰)是个不折不扣的流氓,喜欢玩弄妇女。村民们备受欺压,敢怒不敢言,新上任的村支书叶光荣(吴刚饰)也苦于抓不到证据,只得一忍再忍,等着找机会一网打尽熊家兄弟。终于,机会来了。熊家兄弟从外地绑架回来两名女子,被叶光荣盯上。他暗地发动群众,以“打倒四人帮,黑井村有希望”暗语,准备当天夜里去熊家抓现行,但没想到人算不如天算,兵分四路的抓捕行动意外频出,乱成一锅粥。就在叶光荣一帮人陷入绝境的时候,突然峰回路转,出乎意料的事情发生了。

    ◎获奖情况 

      第9届上海国际电影节 (2006)
      亚洲新人奖 最佳影片(提名) 曹保平
      亚洲新人奖 评委会特别奖

      第8届华语电影传媒大奖 (2008)
      最佳男配角 王砚辉
      最佳新导演 曹保平

    ◎幕后揭秘

      编导阐述

      《光荣的愤怒》是我很多年前的一个剧本,当时审查一直没有通过,所以暂时搁下了。今年终于有机会拍了出来。其实这部电影的故事很简单,情节单纯,推进直接,虽然非常紧张,但这只是表层,并不是我想要讲的东西。我感兴趣的是一种状态。一种渺小的个体在强势压迫下挣扎时,所呈现出来的那种狡颉、犹疑、张惶、乃至悲壮的状态。这种状态非常的生动,我喜欢,因为它有质感、真实!

      这就是我在这部影片里想做的。

      压迫与被压迫这是人类存在不可避免的一部分,一如爱与被爱的必然存在一样,只不过在不同人群、不同环境下,它呈现的质量有所不同而已。《光荣的愤怒》表现了一群很渺小的人,但压迫与被压迫的方式并不渺小。

      这就是我们拍摄这部电影的动力!

      节奏是一部影片的筋络。我希望《光荣的愤怒》最终的风格会非常凌厉,因此在镜头上我们放弃了那种刻意的精致,转而求其糙粝,包括大量的手提摄影,逼近的画面,干净冼炼的剪辑方式,以及刻不容缓的叙事。主观上讲,在这部影片里我不希望给观众喘息的机会,我希望营造出一种压迫感,我想透过这种压迫感让观众去体味那种被压迫的感觉,而这是传达这部影片思想的最好方式!

      另外一方面,我又希望自己能够很小心、很准确地把握住这部影片的黑色风格。它不会影响影片在节奏上的凌厉感,但一定意义上,却可以消解由于镜头的强迫所带给观众的烦躁或不适,因此,在情节乃至细节的构成上,我们始终在寻找那种黑色的味道。而要想做到这一点,最重要的,就是切进去,与你的人物一起呼吸,而不是用某种哪怕是最隐藏的方式去评判和观察。这点至关重要……
    INFO
    General
    Unique ID                      : 173750110348934971279970832705189924217 (0x82B70DD550542EC09C15C00ABE094D79)
    Complete name                  : E:\待发布\光荣的愤怒.Trouble Makers.2006.AI.1080p.x264.AC3-Milton\光荣的愤怒.Trouble Makers.2006.AI.1080p.x264.AC3-Milton.mkv
    Format                         : Matroska
    Format version                 : Version 4
    File size                      : 5.52 GiB
    Duration                       : 1 h 40 min
    Overall bit rate mode          : Variable
    Overall bit rate               : 7 856 kb/s
    Encoded date                   : UTC 2022-04-26 15:42:11
    Writing application            : mkvmerge v67.0.0 ('Under Stars') 64-bit
    Writing library                : libebml v1.4.2 + libmatroska v1.6.4 / ShanaEncoder

    Video
    ID                             : 1
    Format                         : AVC
    Format/Info                    : Advanced Video Codec
    Format profile                 : High@L4
    Format settings                : CABAC / 4 Ref Frames
    Format settings, CABAC         : Yes
    Format settings, Reference fra : 4 frames
    Codec ID                       : V_MPEG4/ISO/AVC
    Duration                       : 1 h 40 min
    Bit rate mode                  : Variable
    Bit rate                       : 7 663 kb/s
    Maximum bit rate               : 16.0 Mb/s
    Width                          : 1 920 pixels
    Height                         : 1 080 pixels
    Display aspect ratio           : 16:9
    Frame rate mode                : Constant
    Frame rate                     : 25.000 FPS
    Color space                    : YUV
    Chroma subsampling             : 4:2:0
    Bit depth                      : 8 bits
    Scan type                      : Progressive
    Bits/(Pixel*Frame)             : 0.148
    Stream size                    : 5.38 GiB (98%)
    Default                        : Yes
    Forced                         : No

    Audio
    ID                             : 2
    Format                         : AC-3
    Format/Info                    : Audio Coding 3
    Commercial name                : Dolby Digital
    Codec ID                       : A_AC3
    Duration                       : 1 h 40 min
    Bit rate mode                  : Constant
    Bit rate                       : 192 kb/s
    Channel(s)                     : 2 channels
    Channel layout                 : L R
    Sampling rate                  : 48.0 kHz
    Frame rate                     : 31.250 FPS (1536 SPF)
    Compression mode               : Lossy
    Stream size                    : 138 MiB (2%)
    Language                       : Chinese
    Service kind                   : Complete Main
    Default                        : No
    Forced                         : No
    SCREENS






    购买主题 已有 16 人购买  本主题需向作者支付 40 大洋 才能浏览
    1,如有链接失效,可发站内消息给我,看到后会补上新链接!一定是发消息!帖子下留言我很可能看不到!
    2,我发的所有电影都是已经刮削好了的,文件夹里除了电影、字幕文件外,还包含NFO信息和海报,可以直接支持KODI、PLEX、EMBY、INFUSE等软件直接本地读取并加载海报墙,不需要挂梯子联网刮削!对海报墙没需求的亦可直接删除!
    3,我是个人用户,非管理组,发帖纯属个人爱好。别再问我为什么不用百度和115网盘发了,论坛对分享平台没有限制!已咨询过版主,使用115、百度以外的网盘不违规!
    回复

    使用道具 举报

  • TA的每日心情
    开心
    昨天 19:52
  • 签到天数: 890 天

    [LV.10]以坛为家III

    3

    主题

    1366

    帖子

    152

    积分

    高级影迷

    Rank: 4

    积分
    152
    发表于 2022-5-17 21:36:09 | 显示全部楼层
    看看                  
    回复

    使用道具 举报

  • TA的每日心情
    奋斗
    3 小时前
  • 签到天数: 521 天

    [LV.9]以坛为家II

    1

    主题

    3722

    帖子

    904

    积分

    资深影迷

    Rank: 10Rank: 10Rank: 10

    积分
    904
    发表于 2022-5-17 22:17:45 | 显示全部楼层
    不错的片子
    回复

    使用道具 举报

  • TA的每日心情
    难过
    16 小时前
  • 签到天数: 322 天

    [LV.8]以坛为家I

    15

    主题

    2665

    帖子

    171

    积分

    高级影迷

    Rank: 4

    积分
    171
    发表于 2022-5-17 23:16:36 | 显示全部楼层
    刷个新版本
    回复

    使用道具 举报

  • TA的每日心情

    3 小时前
  • 签到天数: 676 天

    [LV.9]以坛为家II

    8

    主题

    2493

    帖子

    138

    积分

    中级影迷

    Rank: 3Rank: 3

    积分
    138
    发表于 2022-5-18 10:01:52 | 显示全部楼层
    谢谢 好资源啊 真的不错
    回复

    使用道具 举报

  • TA的每日心情
    开心
    8 小时前
  • 签到天数: 550 天

    [LV.9]以坛为家II

    0

    主题

    6683

    帖子

    351

    积分

    超级影迷

    Rank: 6Rank: 6

    积分
    351
    发表于 2022-5-18 11:22:41 | 显示全部楼层
    感谢分享!
    回复

    使用道具 举报

  • TA的每日心情
    擦汗
    3 天前
  • 签到天数: 53 天

    [LV.5]常住居民I

    0

    主题

    542

    帖子

    29

    积分

    初级影迷

    Rank: 2

    积分
    29
    发表于 2022-5-18 11:27:11 | 显示全部楼层
    好资源啊 真的不错
    回复

    使用道具 举报

  • TA的每日心情
    开心
    10 小时前
  • 签到天数: 1069 天

    [LV.10]以坛为家III

    0

    主题

    1392

    帖子

    154

    积分

    高级影迷

    Rank: 4

    积分
    154
    发表于 2022-5-18 16:33:20 | 显示全部楼层
    没看过这片子,下载吧
    回复

    使用道具 举报

    该用户从未签到

    18

    主题

    212

    帖子

    68

    积分

    初级影迷

    Rank: 2

    积分
    68
    发表于 2022-5-19 10:23:29 | 显示全部楼层
    谢谢分享。
    回复

    使用道具 举报

  • TA的每日心情
    开心
    3 小时前
  • 签到天数: 700 天

    [LV.9]以坛为家II

    0

    主题

    905

    帖子

    596

    积分

    专业影迷

    Rank: 8Rank: 8

    积分
    596
    发表于 2022-5-19 13:47:46 | 显示全部楼层
    谢谢 这部片子非常好看
    回复

    使用道具 举报

    您需要登录后才可以回帖 登录 | 立即注册

    本版积分规则

    QQ|Archiver|手机版|小黑屋|影迷乐园

    GMT+8, 2022-7-7 18:00 , Processed in 0.091039 second(s), 28 queries .

    Powered by Discuz! X3.4

    Copyright © 2001-2020, Tencent Cloud.

    快速回复 返回顶部 返回列表