请选择 进入手机版 | 继续访问电脑版

YMLY-影迷乐园-特效字幕 蓝光原盘 1080P 高清动漫电影电视剧

 找回密码
 立即注册
搜索
查看: 2148|回复: 47

[美国] [百度][2010][720P][行尸走肉.第一季][英语.精品中英特效字幕][6集全][MKV][5.44GB][The Walking Dead.S01.2010.BluRay.720p.x264.AC3-Fxtxok]

[复制链接]
  • TA的每日心情
    奋斗
    5 天前
  • 签到天数: 442 天

    [LV.9]以坛为家II

    2619

    主题

    3131

    帖子

    8249

    积分

    影迷皇帝

    Rank: 20Rank: 20Rank: 20Rank: 20Rank: 20

    积分
    8249

    贵族勋章土豪勋章小土豪勋章主题达人百分百好孩子内测勋章最佳新人影迷女神十二生肖之猪水瓶座勋章

    发表于 2018-4-25 05:41:37 | 显示全部楼层 |阅读模式


    ◎译  名 行尸走肉/阴尸路(台)
    ◎片  名 The Walking Dead
    ◎年  代 2010
    ◎产  地 美国
    ◎类  别 剧情/恐怖
    ◎语  言 英语/西班牙语
    ◎上映日期 2010-10-31
    ◎豆瓣评分 8.4/10 from 70,820 users
    ◎豆瓣链接 https://movie.douban.com/subject/4067152/
    ◎片  长 45分钟
    ◎导  演 弗兰克·德拉邦特 Frank Darabont / 乔韩·瑞克 Johan Renck / 米歇尔·麦克拉伦 Michelle MacLaren / 格温妮丝·豪特尔-佩顿 Gwyneth Horder-Payton / 盖·费尔兰德 Guy Ferland / 厄内斯特·R·迪克森 Ernest R. Dickerson
    ◎主  演 安德鲁·林肯 Andrew Lincoln
          乔·博恩瑟 Jon Bernthal
          劳瑞·侯登 Laurie Holden
          莎拉·韦恩·卡丽丝 Sarah Wayne Callies
          杰弗里·德曼 Jeffrey DeMunn
          史蒂文·袁 Steven Yeun
          诺曼·瑞杜斯 Norman Reedus
          连尼·詹姆斯 Lennie James
          艾玛·贝尔 Emma Bell

    ◎简  介

      镇治安官瑞克·格里姆斯(Andrew Lincoln 饰)在一次行动中遭受枪击,当他从昏迷中醒来时,发现小镇上阴气沉沉,死尸遍地。更为恐怖的是,有的死尸游走于街头巷尾,嗜血如命,早已化作恐怖的丧尸。从一对幸存的父子口中得知,大批的幸存者早已疏散到亚特兰大市的避难所。为了 找到失踪的妻儿,瑞克只身上路。然而亚特兰大早已沦陷成为死城,丧尸在此占有绝对的统治地位。被丧尸围攻的瑞克得到数名幸存者的救助,经过一番奋力厮杀,他们最终返回到野外的营地。在接下来的日子里,他们不仅要面临丧尸的威胁,更要承受来自灵魂深处的巨大考验……
      本片根据托尼·摩尔(Tony Moore)的同名漫画改编,是电视史上第一部正宗的僵尸电视剧。
    1. General
    2. Unique ID                      : 219136213457411342825362704808386174294 (0xA4DC197B6F7C8A85B18ED78ABC331D56)
    3. Complete name                  : F:\BaiduNetdiskDownload\第1季\S01E01.2010.BluRay.720p.x264.AC3-Fxtxok.mkv
    4. Format                         : Matroska
    5. Format version                 : Version 4 / Version 2
    6. File size                      : 1.26 GiB
    7. Duration                       : 1 h 7 min
    8. Overall bit rate               : 2 679 kb/s
    9. Encoded date                   : UTC 2016-09-10 09:42:16
    10. Writing application            : mkvmerge v7.5.0 ('Glass Culture') 32bit built on Jan  4 2015 16:37:25
    11. Writing library                : libebml v1.3.1 + libmatroska v1.4.2

    12. Video
    13. ID                             : 1
    14. Format                         : AVC
    15. Format/Info                    : Advanced Video Codec
    16. Format profile                 : High@L3.1
    17. Format settings, CABAC         : Yes
    18. Format settings, ReFrames      : 4 frames
    19. Codec ID                       : V_MPEG4/ISO/AVC
    20. Duration                       : 1 h 7 min
    21. Bit rate                       : 2 500 kb/s
    22. Width                          : 1 280 pixels
    23. Height                         : 720 pixels
    24. Display aspect ratio           : 16:9
    25. Frame rate mode                : Constant
    26. Frame rate                     : 23.976 (24000/1001) FPS
    27. Color space                    : YUV
    28. Chroma subsampling             : 4:2:0
    29. Bit depth                      : 8 bits
    30. Scan type                      : Progressive
    31. Bits/(Pixel*Frame)             : 0.113
    32. Stream size                    : 1.14 GiB (91%)
    33. Title                          : 视频压制&字幕制作:段进峰
    34. Writing library                : x264 core 148 r2597+52 4ed4a81 xiaowan [8-bit@all X86]
    35. Encoding settings              : cabac=1 / ref=3 / deblock=1:0:0 / analyse=0x3:0x113 / me=hex / subme=7 / psy=1 / fade_compensate=0.00 / psy_rd=1.00:0.00 / mixed_ref=1 / me_range=16 / chroma_me=1 / trellis=1 / 8x8dct=1 / cqm=0 / deadzone=21,11 / fast_pskip=1 / chroma_qp_offset=-2 / threads=3 / lookahead_threads=1 / sliced_threads=0 / nr=0 / decimate=1 / interlaced=0 / bluray_compat=0 / constrained_intra=0 / fgo=0 / bframes=3 / b_pyramid=2 / b_adapt=1 / b_bias=0 / direct=1 / weightb=1 / open_gop=0 / weightp=2 / keyint=250 / keyint_min=23 / scenecut=40 / intra_refresh=0 / rc_lookahead=40 / rc=abr / mbtree=1 / bitrate=2500 / ratetol=1.0 / qcomp=0.60 / qpmin=0:0:0 / qpmax=69:69:69 / qpstep=4 / ip_ratio=1.40 / aq=1:1.00 / aq-sensitivity=10.00 / aq-factor=1.00:1.00:1.00 / aq2=0 / aq3=0
    36. Default                        : Yes
    37. Forced                         : No

    38. Audio
    39. ID                             : 2
    40. Format                         : AC-3
    41. Format/Info                    : Audio Coding 3
    42. Format settings, Endianness    : Big
    43. Codec ID                       : A_AC3
    44. Duration                       : 1 h 7 min
    45. Bit rate mode                  : Constant
    46. Bit rate                       : 192 kb/s
    47. Channel(s)                     : 6 channels
    48. Channel positions              : Front: L C R, Side: L R, LFE
    49. Sampling rate                  : 48.0 kHz
    50. Frame rate                     : 31.250 FPS (1536 spf)
    51. Bit depth                      : 16 bits
    52. Compression mode               : Lossy
    53. Stream size                    : 92.1 MiB (7%)
    54. Title                          : 外语原声
    55. Service kind                   : Complete Main
    56. Default                        : Yes
    57. Forced                         : No

    复制代码
























    购买主题 已有 1 人购买  本主题需向作者支付 500 大洋 才能浏览
    回复

    使用道具 举报

  • TA的每日心情
    奋斗
    2020-2-11 00:03
  • 签到天数: 655 天

    [LV.9]以坛为家II

    4934

    主题

    6036

    帖子

    1万

    积分

    超级版主

    Rank: 16Rank: 16Rank: 16Rank: 16

    积分
    11666

    内测勋章最佳新人十二生肖之猴VIP包月勋章影迷男神小土豪勋章土豪勋章富甲一方精华勋章金话筒主题达人灌水之王

    发表于 2018-11-6 11:15:25 | 显示全部楼层
    果然是精品字幕,希望能把其它几季补全
    郑重声明:
    本人提供的所有影视作品均是在网上搜集,任何涉及商业盈利目的均不得使用,否则产生的一切后果将由您自己承担!
    本人不对本人所发布的任何内容负任何法律责任!该下载内容仅做宽带测试使用,请在下载后24小时内删除。请购买正版!
    本人列出的文件没有保存在本站的服务器上,本人仅负责连接,本人对被传播文件的内容一无所知。
    如侵犯视频原作者或发行商版权,请联系本人删除!
    回复

    使用道具 举报

  • TA的每日心情

    2020-1-14 14:04
  • 签到天数: 250 天

    [LV.8]以坛为家I

    81

    主题

    905

    帖子

    207

    积分

    高级影迷

    Rank: 4

    积分
    207
    发表于 2019-1-13 00:12:55 | 显示全部楼层
    多谢楼主分享
    回复

    使用道具 举报

  • TA的每日心情
    开心
    5 天前
  • 签到天数: 217 天

    [LV.7]常住居民III

    2

    主题

    1444

    帖子

    161

    积分

    高级影迷

    Rank: 4

    积分
    161
    发表于 2019-2-10 11:21:15 | 显示全部楼层

    楼主发贴辛苦了,谢谢楼主分享!
    回复

    使用道具 举报

  • TA的每日心情
    奋斗
    昨天 07:42
  • 签到天数: 293 天

    [LV.8]以坛为家I

    31

    主题

    3391

    帖子

    315

    积分

    超级影迷

    Rank: 6Rank: 6

    积分
    315
    发表于 2019-5-14 08:34:03 | 显示全部楼层
    漂亮!带特效字幕。
    回复

    使用道具 举报

  • TA的每日心情
    开心
    2020-2-10 09:24
  • 签到天数: 115 天

    [LV.6]常住居民II

    1

    主题

    972

    帖子

    138

    积分

    中级影迷

    Rank: 3Rank: 3

    积分
    138
    发表于 2019-5-24 00:10:27 | 显示全部楼层
    谢谢分享!
    回复

    使用道具 举报

  • TA的每日心情
    奋斗
    2020-1-23 22:24
  • 签到天数: 153 天

    [LV.7]常住居民III

    0

    主题

    513

    帖子

    162

    积分

    高级影迷

    Rank: 4

    积分
    162
    发表于 2019-5-30 23:00:49 | 显示全部楼层
    给力的字幕支持
    回复

    使用道具 举报

  • TA的每日心情

    昨天 13:31
  • 签到天数: 57 天

    [LV.5]常住居民I

    1

    主题

    434

    帖子

    62

    积分

    初级影迷

    Rank: 2

    积分
    62
    发表于 2019-7-11 08:52:40 | 显示全部楼层
    留个脚印。
    回复

    使用道具 举报

  • TA的每日心情
    开心
    2019-10-6 09:29
  • 签到天数: 39 天

    [LV.5]常住居民I

    0

    主题

    474

    帖子

    56

    积分

    初级影迷

    Rank: 2

    积分
    56
    发表于 2019-8-13 19:27:37 | 显示全部楼层
    谢谢分享!
    回复

    使用道具 举报

  • TA的每日心情
    开心
    2019-10-6 09:29
  • 签到天数: 39 天

    [LV.5]常住居民I

    0

    主题

    474

    帖子

    56

    积分

    初级影迷

    Rank: 2

    积分
    56
    发表于 2019-8-15 19:41:51 | 显示全部楼层

    感谢分享好资源!
    回复

    使用道具 举报

    您需要登录后才可以回帖 登录 | 立即注册

    本版积分规则

    QQ|Archiver|手机版|小黑屋|影迷乐园  

    GMT+8, 2020-2-20 07:37 , Processed in 0.146600 second(s), 30 queries .

    Powered by Discuz! X3.3

    © 2001-2017 Comsenz Inc.

    快速回复 返回顶部 返回列表