请选择 进入手机版 | 继续访问电脑版

YMLY-影迷乐园-特效字幕 蓝光原盘 1080P 高清动漫电影电视剧

 找回密码
 立即注册
搜索
查看: 5031|回复: 60

[香港] [百度][1994][1080P][射雕英雄传][国粤双语中字][张智霖.朱茵][35集全][TS][71.77GB][TVB星河][XingHe The Legend of the Condor Heroes 1994 HDTV 1080i H264-CHDHKTV]

[复制链接]
  • TA的每日心情
    奋斗
    2020-2-11 00:03
  • 签到天数: 655 天

    [LV.9]以坛为家II

    4934

    主题

    6036

    帖子

    1万

    积分

    超级版主

    Rank: 16Rank: 16Rank: 16Rank: 16

    积分
    11664

    内测勋章最佳新人十二生肖之猴VIP包月勋章影迷男神小土豪勋章土豪勋章富甲一方精华勋章金话筒主题达人灌水之王

    发表于 2018-5-2 00:49:45 | 显示全部楼层 |阅读模式
    94版射雕英雄传35集全 张智霖朱茵 1080i  2018星河源码 非常清晰 强烈推荐收藏

    ◎译  名 射雕英雄传
    ◎片  名 射鵰英雄傳
    ◎年  代 1994
    ◎产  地 香港
    ◎类  别 武侠
    ◎语  言 粤语
    ◎上映日期 1994-08-01(香港)
    ◎豆瓣评分 8.7/10 from 22,237 users
    ◎豆瓣链接 https://movie.douban.com/subject/2301032/
    ◎集  数 35
    ◎片  长 40分钟
    ◎导  演 李添胜 Tim-Sing Lee
    ◎主  演 张智霖 Julian Cheung
          朱茵 Athena Chu
          罗嘉良 Gallen Law
          关宝慧 Emily Kwan
          骆应钧 Ying Kwan Lok
          黎耀祥 Yiu-Cheung Lai
          刘丹 Tan Lau
          林伟 Vincent Lam
          朱铁和 Tiet Wo Chu

    ◎简  介

      故事发生在南宋末年,郭靖(张智霖 饰)和杨康(罗嘉良 饰)分别是郭家和杨家最后的传人,郭靖生长于大漠之中,受高人指点研习武艺,为人忠厚正直,而杨康则被金人完颜洪烈(王伟 饰)收养,成为了太子。
      某日,郭靖南下,结识了名为黄蓉(朱茵 饰)的伶俐女子,随着时间的推移,两人之间情愫渐生,渐渐走到了一起。与此同时,郭靖更得到了北丐洪七公(刘丹 饰)和周伯通(黎耀祥 饰)的指点,分别习得了江湖失传已久的降龙十八掌及九阴真经。一次意外中,杨康得知了完颜洪烈正是自己的杀父仇人,然而,在利益的驱使下,他认贼作父,更联合邪恶的西毒欧阳锋(朱铁和 饰),企图从郭靖手上夺取武林秘籍。
    1. General
    2. ID                             : 1 (0x1)
    3. Complete name                  : I:\★..(百度云)★\XingHe The Legend of the Condor Heroes 1994 Ep08 HDTV 1080i H264-CHDHKTV.ts
    4. Format                         : MPEG-TS
    5. File size                      : 2.05 GiB
    6. Duration                       : 46 min 31 s
    7. Overall bit rate mode          : Variable
    8. Overall bit rate               : 6 322 kb/s
    9. Maximum Overall bit rate       : 35.5 Mb/s

    10. Video
    11. ID                             : 4113 (0x1011)
    12. Menu ID                        : 1 (0x1)
    13. Format                         : AVC
    14. Format/Info                    : Advanced Video Codec
    15. Format profile                 : High@L4
    16. Format settings                : CABAC / 3 Ref Frames
    17. Format settings, CABAC         : Yes
    18. Format settings, ReFrames      : 3 frames
    19. Codec ID                       : 27
    20. Duration                       : 46 min 31 s
    21. Bit rate mode                  : Variable
    22. Bit rate                       : 5 751 kb/s
    23. Maximum bit rate               : 40.0 Mb/s
    24. Width                          : 1 920 pixels
    25. Height                         : 1 080 pixels
    26. Display aspect ratio           : 16:9
    27. Frame rate                     : 25.000 FPS
    28. Standard                       : Component
    29. Color space                    : YUV
    30. Chroma subsampling             : 4:2:0
    31. Bit depth                      : 8 bits
    32. Scan type                      : Interlaced
    33. Scan type, store method        : Separated fields
    34. Scan order                     : Top Field First
    35. Bits/(Pixel*Frame)             : 0.111
    36. Stream size                    : 1.87 GiB (91%)
    37. Color range                    : Limited
    38. Color primaries                : BT.709
    39. Transfer characteristics       : BT.709
    40. Matrix coefficients            : BT.709

    41. Audio #1
    42. ID                             : 4352 (0x1100)
    43. Menu ID                        : 1 (0x1)
    44. Format                         : AC-3
    45. Format/Info                    : Audio Coding 3
    46. Codec ID                       : 129
    47. Duration                       : 46 min 31 s
    48. Bit rate mode                  : Constant
    49. Bit rate                       : 128 kb/s
    50. Channel(s)                     : 2 channels
    51. Channel positions              : Front: L R
    52. Sampling rate                  : 48.0 kHz
    53. Frame rate                     : 31.250 FPS (1536 SPF)
    54. Bit depth                      : 16 bits
    55. Compression mode               : Lossy
    56. Stream size                    : 42.6 MiB (2%)
    57. Service kind                   : Complete Main

    58. Audio #2
    59. ID                             : 4353 (0x1101)
    60. Menu ID                        : 1 (0x1)
    61. Format                         : MPEG Audio
    62. Format version                 : Version 1
    63. Format profile                 : Layer 2
    64. Codec ID                       : 4
    65. Duration                       : 46 min 31 s
    66. Bit rate mode                  : Constant
    67. Bit rate                       : 128 kb/s
    68. Channel(s)                     : 2 channels
    69. Sampling rate                  : 48.0 kHz
    70. Frame rate                     : 41.667 FPS (1152 SPF)
    71. Compression mode               : Lossy
    72. Stream size                    : 42.6 MiB (2%)

    复制代码















    购买主题 已有 9 人购买  本主题需向作者支付 50 大洋 才能浏览
    郑重声明:
    本人提供的所有影视作品均是在网上搜集,任何涉及商业盈利目的均不得使用,否则产生的一切后果将由您自己承担!
    本人不对本人所发布的任何内容负任何法律责任!该下载内容仅做宽带测试使用,请在下载后24小时内删除。请购买正版!
    本人列出的文件没有保存在本站的服务器上,本人仅负责连接,本人对被传播文件的内容一无所知。
    如侵犯视频原作者或发行商版权,请联系本人删除!
    回复

    使用道具 举报

  • TA的每日心情
    奋斗
    5 天前
  • 签到天数: 161 天

    [LV.7]常住居民III

    1

    主题

    207

    帖子

    27

    积分

    初级影迷

    Rank: 2

    积分
    27
    发表于 2018-12-24 22:36:33 | 显示全部楼层
    朱茵版的黄蓉也挺可爱的
    回复

    使用道具 举报

  • TA的每日心情

    2020-1-14 14:04
  • 签到天数: 250 天

    [LV.8]以坛为家I

    81

    主题

    905

    帖子

    207

    积分

    高级影迷

    Rank: 4

    积分
    207
    发表于 2019-1-13 00:20:32 | 显示全部楼层
    多谢楼主分享
    回复

    使用道具 举报

  • TA的每日心情
    开心
    昨天 10:26
  • 签到天数: 471 天

    [LV.9]以坛为家II

    5

    主题

    586

    帖子

    215

    积分

    高级影迷

    Rank: 4

    积分
    215
    发表于 2019-1-14 21:08:46 | 显示全部楼层
    感谢分享优秀资源
    回复

    使用道具 举报

  • TA的每日心情

    2020-1-14 14:04
  • 签到天数: 250 天

    [LV.8]以坛为家I

    81

    主题

    905

    帖子

    207

    积分

    高级影迷

    Rank: 4

    积分
    207
    发表于 2019-1-22 23:31:55 | 显示全部楼层
    感谢分享精品资源
    回复

    使用道具 举报

  • TA的每日心情
    开心
    5 天前
  • 签到天数: 217 天

    [LV.7]常住居民III

    2

    主题

    1444

    帖子

    161

    积分

    高级影迷

    Rank: 4

    积分
    161
    发表于 2019-2-10 11:19:49 | 显示全部楼层

    楼主发贴辛苦了,谢谢楼主分享!
    回复

    使用道具 举报

  • TA的每日心情
    开心
    5 天前
  • 签到天数: 217 天

    [LV.7]常住居民III

    2

    主题

    1444

    帖子

    161

    积分

    高级影迷

    Rank: 4

    积分
    161
    发表于 2019-2-10 11:20:08 | 显示全部楼层

    楼主发贴辛苦了,谢谢楼主分享!
    回复

    使用道具 举报

  • TA的每日心情
    开心
    2020-1-25 20:13
  • 签到天数: 59 天

    [LV.5]常住居民I

    0

    主题

    171

    帖子

    30

    积分

    初级影迷

    Rank: 2

    积分
    30
    发表于 2019-3-2 22:38:28 | 显示全部楼层
    文件好大应该很清晰吧
    回复

    使用道具 举报

  • TA的每日心情
    开心
    2020-2-10 09:24
  • 签到天数: 115 天

    [LV.6]常住居民II

    1

    主题

    972

    帖子

    138

    积分

    中级影迷

    Rank: 3Rank: 3

    积分
    138
    发表于 2019-5-10 08:50:55 | 显示全部楼层
    谢谢分享!
    回复

    使用道具 举报

  • TA的每日心情
    奋斗
    2020-1-23 22:24
  • 签到天数: 153 天

    [LV.7]常住居民III

    0

    主题

    513

    帖子

    162

    积分

    高级影迷

    Rank: 4

    积分
    162
    发表于 2019-5-18 21:17:43 | 显示全部楼层
    又是一部经典的连续剧,喜欢朱茵版黄蓉
    回复

    使用道具 举报

    您需要登录后才可以回帖 登录 | 立即注册

    本版积分规则

    QQ|Archiver|手机版|小黑屋|影迷乐园  

    GMT+8, 2020-2-20 05:56 , Processed in 0.158875 second(s), 31 queries .

    Powered by Discuz! X3.3

    © 2001-2017 Comsenz Inc.

    快速回复 返回顶部 返回列表