请选择 进入手机版 | 继续访问电脑版

YMLY-影迷乐园-特效字幕 蓝光原盘 1080P 高清动漫电影电视剧

 找回密码
 立即注册
搜索
查看: 968|回复: 56

[大陆] [百度][2004][大马帮][国语硬中字][30集全][MKV][22.6GB][DVDRip.720p.x264.AC3.50FPS]

[复制链接]
  • TA的每日心情
    擦汗
    2023-12-1 18:04
  • 签到天数: 58 天

    [LV.5]常住居民I

    136

    主题

    553

    帖子

    9092

    积分

    影迷皇帝

    Rank: 20Rank: 20Rank: 20Rank: 20Rank: 20

    积分
    9092

    富甲一方土豪勋章小土豪勋章影迷男神影迷女神天蝎座勋章

    发表于 2024-3-26 12:05:09 | 显示全部楼层 |阅读模式
    原创压制。



    ◎片  名 大马帮
    ◎年  代 2004
    ◎产  地 中国大陆
    ◎类  别 剧情
    ◎语  言 汉语普通话
    ◎上映日期 2004
    ◎豆瓣评分 8.5/10 from 521 users
    ◎豆瓣链接 https://movie.douban.com/subject/3603848/
    ◎集  数 30
    ◎导  演 马功伟 Gongwei Ma
    ◎主  演 章申 Shen Zhang
           萧蔷 Stephanie Siao
           刘佩琦 Peiqi Liu
           张明健 Mingjian Zhang
           宁静 Jing Ning
           刘超 Chao Liu
           张帆 Fan Zhang
           许敬义 Jingyi Xu
           徐亮 Liang Xu
           陶吉新 Jixin Tao

    ◎简  介

      地处云南省近缅甸边界被称作“马蹄窝”小镇上赶马汉董义和从小失去了爹娘十五岁就孤身闯夷方(缅甸)曾被陷害差点送命幸被十八妹救回并帮助下逃走果果误认为将玉矿偷走回老家了想亲手杀死当终于明白真相带着父亲出售玉矿全部所得和一同回马蹄窝董义和将这些钱财全部换成了三十匹马组建起一支马队从此开始了为之奋斗一生跑马帮生涯。
      马蹄窝董家和尹家存着势不两立家族矛盾董义和归来成为了这两个家庭势力之争焦点为缓和矛盾尹家将女儿嫁给董义和尹家贤深明大义极有心计说服大字不识董义和契约上签字将家中一切财务交于管理董义和爽快答应果果黑姑(一直暗恋董义和)劝告下接受了事实成了董家二太太不久尹家贤为董家生下二子小转转董义和生死弟兄一直喜欢果果发誓一辈子不再找其女人果果误认为董义和买泰国姑娘娶三太太气极之际不慎弄倒了蜡烛惹起大火果果与傣国姑娘尹家贤葬身火海董义和多年奋斗积累起来家产化为灰烬……





    1. General
    2. Unique ID                      : 14015170900810153622041123647694823003 (0xA8B3946754F82F49E8B2183A94FDE5B)
    3. Complete name                  : 大马帮.E05.DVDRip.x264.AC3.mkv
    4. Format                         : Matroska
    5. Format version                 : Version 4
    6. File size                      : 830 MiB
    7. Duration                       : 41 min 35 s
    8. Overall bit rate               : 2 791 kb/s
    9. Frame rate                     : 50.000 FPS
    10. Encoded date                   : 2024-03-24 03:19:33 UTC
    11. Writing application            : mkvmerge v48.0.0 ('Fortress Around Your Heart') 64-bit
    12. Writing library                : libebml v1.4.0 + libmatroska v1.6.0

    13. Video
    14. ID                             : 1
    15. Format                         : AVC
    16. Format/Info                    : Advanced Video Codec
    17. Format profile                 : High@L4.2
    18. Format settings                : CABAC / 8 Ref Frames
    19. Format settings, CABAC         : Yes
    20. Format settings, Reference fra : 8 frames
    21. Codec ID                       : V_MPEG4/ISO/AVC
    22. Duration                       : 41 min 35 s
    23. Bit rate                       : 2 595 kb/s
    24. Width                          : 960 pixels
    25. Height                         : 720 pixels
    26. Display aspect ratio           : 4:3
    27. Frame rate mode                : Constant
    28. Frame rate                     : 50.000 FPS
    29. Color space                    : YUV
    30. Chroma subsampling             : 4:2:0
    31. Bit depth                      : 8 bits
    32. Scan type                      : Progressive
    33. Bits/(Pixel*Frame)             : 0.075
    34. Stream size                    : 772 MiB (93%)
    35. Writing library                : x264 core 164 r3107 a8b68eb
    36. Encoding settings              : cabac=1 / ref=8 / deblock=1:0:0 / analyse=0x3:0x113 / me=hex / subme=10 / psy=1 / psy_rd=1.00:0.00 / mixed_ref=1 / me_range=16 / chroma_me=1 / trellis=2 / 8x8dct=1 / cqm=0 / deadzone=21,11 / fast_pskip=1 / chroma_qp_offset=-2 / threads=22 / lookahead_threads=1 / sliced_threads=0 / nr=0 / decimate=1 / interlaced=0 / bluray_compat=0 / constrained_intra=0 / bframes=3 / b_pyramid=2 / b_adapt=1 / b_bias=0 / direct=3 / weightb=1 / open_gop=0 / weightp=2 / keyint=250 / keyint_min=25 / scenecut=40 / intra_refresh=0 / rc_lookahead=50 / rc=crf / mbtree=1 / crf=22.0 / qcomp=0.60 / qpmin=0 / qpmax=69 / qpstep=4 / ip_ratio=1.40 / aq=1:1.00
    37. Language                       : Chinese
    38. Default                        : Yes
    39. Forced                         : No
    40. Color range                    : Limited
    41. Color primaries                : BT.601 PAL
    42. Transfer characteristics       : BT.470 System B/G
    43. Matrix coefficients            : BT.470 System B/G

    44. Audio
    45. ID                             : 2
    46. Format                         : AC-3
    47. Format/Info                    : Audio Coding 3
    48. Commercial name                : Dolby Digital
    49. Codec ID                       : A_AC3
    50. Duration                       : 41 min 35 s
    51. Bit rate mode                  : Constant
    52. Bit rate                       : 192 kb/s
    53. Channel(s)                     : 2 channels
    54. Channel layout                 : L R
    55. Sampling rate                  : 48.0 kHz
    56. Frame rate                     : 31.250 FPS (1536 SPF)
    57. Compression mode               : Lossy
    58. Delay relative to video        : 8 ms
    59. Stream size                    : 57.1 MiB (7%)
    60. Language                       : Chinese
    61. Service kind                   : Complete Main
    62. Default                        : Yes
    63. Forced                         : No

    复制代码


    购买主题 已有 5 人购买  本主题需向作者支付 50 大洋 才能浏览
    回复

    使用道具 举报

  • TA的每日心情
    擦汗
    昨天 13:40
  • 签到天数: 676 天

    [LV.9]以坛为家II

    10

    主题

    5242

    帖子

    458

    积分

    专业影迷

    Rank: 8Rank: 8

    积分
    458
    发表于 2024-3-26 13:24:15 | 显示全部楼层
    感谢分享~~~!
    回复

    使用道具 举报

  • TA的每日心情
    开心
    昨天 00:45
  • 签到天数: 703 天

    [LV.9]以坛为家II

    0

    主题

    4686

    帖子

    1197

    积分

    资深影迷

    Rank: 10Rank: 10Rank: 10

    积分
    1197
    发表于 2024-3-26 13:45:30 | 显示全部楼层
    感谢楼主分享资源
    回复

    使用道具 举报

  • TA的每日心情
    开心
    昨天 15:03
  • 签到天数: 1124 天

    [LV.10]以坛为家III

    44

    主题

    1万

    帖子

    1560

    积分

    稀有影迷

    Rank: 12Rank: 12Rank: 12

    积分
    1560
    发表于 2024-3-26 14:12:49 | 显示全部楼层
    谢分享,支持一下。
    回复

    使用道具 举报

  • TA的每日心情
    开心
    2024-3-26 15:07
  • 签到天数: 28 天

    [LV.4]偶尔看看III

    0

    主题

    90

    帖子

    11

    积分

    入门影迷

    Rank: 1

    积分
    11
    发表于 2024-3-26 15:07:50 | 显示全部楼层
    谢谢分享~~~~~~
    回复

    使用道具 举报

  • TA的每日心情
    开心
    4 天前
  • 签到天数: 109 天

    [LV.6]常住居民II

    0

    主题

    749

    帖子

    67

    积分

    初级影迷

    Rank: 2

    积分
    67
    发表于 2024-3-26 15:22:23 | 显示全部楼层
    谢谢分享!

    点评

    感谢楼主分享资源  详情 回复 发表于 2024-3-29 13:12
    回复

    使用道具 举报

  • TA的每日心情
    开心
    昨天 08:11
  • 签到天数: 1156 天

    [LV.10]以坛为家III

    0

    主题

    3087

    帖子

    204

    积分

    高级影迷

    Rank: 4

    积分
    204
    发表于 2024-3-26 16:53:09 | 显示全部楼层
    感谢楼主分享资源
    回复

    使用道具 举报

  • TA的每日心情
    郁闷
    昨天 09:06
  • 签到天数: 162 天

    [LV.7]常住居民III

    1

    主题

    1102

    帖子

    142

    积分

    中级影迷

    Rank: 3Rank: 3

    积分
    142
    发表于 2024-3-26 17:02:38 | 显示全部楼层
    谢谢楼主的分享。
    回复

    使用道具 举报

  • TA的每日心情
    奋斗
    昨天 00:30
  • 签到天数: 1008 天

    [LV.10]以坛为家III

    6

    主题

    8088

    帖子

    1505

    积分

    稀有影迷

    Rank: 12Rank: 12Rank: 12

    积分
    1505
    发表于 2024-3-26 19:08:38 | 显示全部楼层
    回复

    使用道具 举报

  • TA的每日心情
    奋斗
    2022-9-8 21:07
  • 签到天数: 17 天

    [LV.4]偶尔看看III

    1

    主题

    383

    帖子

    53

    积分

    初级影迷

    Rank: 2

    积分
    53
    发表于 2024-3-26 20:42:41 | 显示全部楼层
    谢谢大大分享
    回复

    使用道具 举报

    您需要登录后才可以回帖 登录 | 立即注册

    本版积分规则

    QQ|Archiver|手机版|小黑屋|影迷乐园

    GMT+8, 2024-4-15 01:33 , Processed in 0.118360 second(s), 28 queries .

    Powered by Discuz! X3.4

    Copyright © 2001-2020, Tencent Cloud.

    快速回复 返回顶部 返回列表