请选择 进入手机版 | 继续访问电脑版

YMLY-影迷乐园-特效字幕 蓝光原盘 1080P 高清动漫电影电视剧

 找回密码
 立即注册
搜索
查看: 1017|回复: 84

[台湾] [百度][1992][一代皇后大玉儿][国语.硬中字][42集全][MKV][27.1GB][HDTVRip.720p.x264.AAC.60FPS]

  [复制链接]
回帖奖励 185 大洋 回复本帖可获得 5 大洋奖励! 每人限 1 次(中奖概率 20%)
  • TA的每日心情
    擦汗
    2023-12-1 18:04
  • 签到天数: 58 天

    [LV.5]常住居民I

    136

    主题

    553

    帖子

    9092

    积分

    影迷皇帝

    Rank: 20Rank: 20Rank: 20Rank: 20Rank: 20

    积分
    9092

    富甲一方土豪勋章小土豪勋章影迷男神影迷女神天蝎座勋章

    发表于 2024-3-30 14:22:43 | 显示全部楼层 |阅读模式
    原创压制于中视经典台源码,已切去广告,60帧流畅画质。



    ◎译  名 一代皇后大玉儿
    ◎片  名 一代皇后大玉兒
    ◎年  代 1992
    ◎产  地 中国台湾
    ◎类  别 剧情 / 爱情 / 武侠 / 古装
    ◎语  言 汉语普通话
    ◎上映日期 1992-05-14(中国台湾)
    ◎豆瓣评分 7.9/10 from 5808 users
    ◎豆瓣链接 https://movie.douban.com/subject/3036627/
    ◎集  数 42
    ◎片  长 50分钟
    ◎导  演 李岳峰 Yueh Feng Li
    ◎编  剧 徐斌扬 Bin-Yang Xu
    ◎主  演 潘迎紫 Yin Tze Pan
           尔冬升 Tung-shing Yee
           刘青云 Sean Lau
           张振寰 Chen-Huan Chang
           鲍正芳 Cheng-Fang Pao
           翟玉娘 Yu-Niang Chai
           于芷蔚 Chi-Wai Yu
           孙鹏 Peng Sun
           季芹 Chin Chi
           孔兰薰 Lan-Hsun Kung
           贝蒂 Betty Pei Ti
           张纪平 Chi-Ping Chang
           汪强 Chiang Wang
           尤国栋 Kuo-tung Yu
           张复周 Fu-Chou Chang
           蒋沅 Yuan Chiang
           杜素真 Su-Chen Tu
           廖威凯 Weikai Liao

    ◎简  介

      本部电视剧描写中国历史上有名的贤后——孝庄文皇后(潘迎紫饰)的传奇一生。大玉儿生在蒙古科尔泌部落,天生丽质的她很小的时候就出落得明眸皓齿,娇美动人。在一次本族受洗劫时,大玉儿偶遇爱新觉罗·多尔衮(尔冬升饰)。两人青梅竹马,私订终生。然而就在这一年,大玉儿在其兄长吴克善(尤国栋饰)的护送下,长途跋涉到了后金都城盛京,与后金汗努尔哈赤的第八子皇太极(刘青云饰)成婚。敢爱敢恨的大玉儿虽身为大金可汗皇太极的皇妃,但难以割舍下那段情窦初开的甜蜜,与摄政王多尔衮有染。事后皇太极甚至发现自己和大玉儿生的太子,竟不是自己的亲生子。
      这位堪称中国旷古最完美的女人,辅助成就了大清两百六十七年霸业。而本剧集着力描写的是她与多尔衮之间的爱情故事。本片加入了不少野史的情节,增加了不少娱乐性和可看性。







    1. General
    2. Unique ID                      : 206412444461174322755700566728879473118 (0x9B49973C9599FB1320FBACE34F7D81DE)
    3. Complete name                  : 一代皇后大玉儿.E01.HDTV.x264.AAC.mkv
    4. Format                         : Matroska
    5. Format version                 : Version 4
    6. File size                      : 809 MiB
    7. Duration                       : 50 min 3 s
    8. Overall bit rate               : 2 260 kb/s
    9. Frame rate                     : 59.940 FPS
    10. Encoded date                   : 2024-03-29 01:21:40 UTC
    11. Writing application            : mkvmerge v48.0.0 ('Fortress Around Your Heart') 64-bit
    12. Writing library                : libebml v1.4.0 + libmatroska v1.6.0

    13. Video
    14. ID                             : 1
    15. Format                         : AVC
    16. Format/Info                    : Advanced Video Codec
    17. Format profile                 : High@L4.2
    18. Format settings                : CABAC / 8 Ref Frames
    19. Format settings, CABAC         : Yes
    20. Format settings, Reference fra : 8 frames
    21. Codec ID                       : V_MPEG4/ISO/AVC
    22. Duration                       : 50 min 3 s
    23. Bit rate                       : 1 872 kb/s
    24. Width                          : 960 pixels
    25. Height                         : 720 pixels
    26. Display aspect ratio           : 4:3
    27. Frame rate mode                : Constant
    28. Frame rate                     : 59.940 (60000/1001) FPS
    29. Color space                    : YUV
    30. Chroma subsampling             : 4:2:0
    31. Bit depth                      : 8 bits
    32. Scan type                      : Progressive
    33. Bits/(Pixel*Frame)             : 0.045
    34. Stream size                    : 670 MiB (83%)
    35. Writing library                : x264 core 164 r3107 a8b68eb
    36. Encoding settings              : cabac=1 / ref=8 / deblock=1:0:0 / analyse=0x3:0x113 / me=hex / subme=10 / psy=0 / mixed_ref=1 / me_range=16 / chroma_me=1 / trellis=2 / 8x8dct=1 / cqm=0 / deadzone=21,11 / fast_pskip=1 / chroma_qp_offset=0 / threads=22 / lookahead_threads=1 / sliced_threads=0 / nr=0 / decimate=1 / interlaced=0 / bluray_compat=0 / constrained_intra=0 / bframes=3 / b_pyramid=2 / b_adapt=1 / b_bias=0 / direct=3 / weightb=1 / open_gop=0 / weightp=2 / keyint=250 / keyint_min=25 / scenecut=40 / intra_refresh=0 / rc_lookahead=50 / rc=crf / mbtree=1 / crf=22.0 / qcomp=0.60 / qpmin=0 / qpmax=69 / qpstep=4 / ip_ratio=1.40 / aq=2:1.00
    37. Language                       : Chinese
    38. Default                        : Yes
    39. Forced                         : No

    40. Audio
    41. ID                             : 2
    42. Format                         : MPEG Audio
    43. Format version                 : Version 1
    44. Format profile                 : Layer 2
    45. Codec ID                       : A_MPEG/L2
    46. Codec ID/Hint                  : MP2
    47. Duration                       : 50 min 3 s
    48. Bit rate mode                  : Constant
    49. Bit rate                       : 384 kb/s
    50. Channel(s)                     : 2 channels
    51. Sampling rate                  : 48.0 kHz
    52. Frame rate                     : 41.658 FPS (1152 SPF)
    53. Compression mode               : Lossy
    54. Delay relative to video        : 192 ms
    55. Stream size                    : 137 MiB (17%)
    56. Language                       : Chinese
    57. Default                        : Yes
    58. Forced                         : No

    复制代码


    购买主题 已有 5 人购买  本主题需向作者支付 50 大洋 才能浏览
    回复

    使用道具 举报

  • TA的每日心情
    开心
    昨天 00:03
  • 签到天数: 681 天

    [LV.9]以坛为家II

    9

    主题

    5097

    帖子

    801

    积分

    资深影迷

    Rank: 10Rank: 10Rank: 10

    积分
    801
    发表于 2024-3-30 14:33:02 | 显示全部楼层
    感谢分享啊
    回复

    使用道具 举报

  • TA的每日心情

    昨天 10:07
  • 签到天数: 530 天

    [LV.9]以坛为家II

    0

    主题

    2364

    帖子

    154

    积分

    高级影迷

    Rank: 4

    积分
    154
    发表于 2024-3-30 14:37:29 | 显示全部楼层
    感谢分享啊
    回复

    使用道具 举报

  • TA的每日心情
    奋斗
    昨天 14:28
  • 签到天数: 569 天

    [LV.9]以坛为家II

    0

    主题

    994

    帖子

    95

    积分

    中级影迷

    Rank: 3Rank: 3

    积分
    95
    发表于 2024-3-30 14:50:05 | 显示全部楼层

    回帖奖励 +5 大洋

    谢谢分享经典资源

    点评

    感谢楼主分享资源  详情 回复 发表于 2024-4-1 13:12
    回复

    使用道具 举报

  • TA的每日心情
    开心
    昨天 08:11
  • 签到天数: 1156 天

    [LV.10]以坛为家III

    0

    主题

    3087

    帖子

    204

    积分

    高级影迷

    Rank: 4

    积分
    204
    发表于 2024-3-30 16:52:57 | 显示全部楼层
    谢谢分享经典资源
    回复

    使用道具 举报

  • TA的每日心情
    奋斗
    昨天 00:30
  • 签到天数: 1008 天

    [LV.10]以坛为家III

    6

    主题

    8088

    帖子

    1505

    积分

    稀有影迷

    Rank: 12Rank: 12Rank: 12

    积分
    1505
    发表于 2024-3-30 19:39:59 | 显示全部楼层

    点评

    多谢大佬分享  详情 回复 发表于 2024-4-7 13:31
    回复

    使用道具 举报

  • TA的每日心情
    开心
    昨天 06:31
  • 签到天数: 39 天

    [LV.5]常住居民I

    0

    主题

    139

    帖子

    31

    积分

    初级影迷

    Rank: 2

    积分
    31
    发表于 2024-3-30 19:40:52 | 显示全部楼层

    回帖奖励 +5 大洋


    感谢分享啊
    回复

    使用道具 举报

  • TA的每日心情
    郁闷
    昨天 09:06
  • 签到天数: 162 天

    [LV.7]常住居民III

    1

    主题

    1102

    帖子

    142

    积分

    中级影迷

    Rank: 3Rank: 3

    积分
    142
    发表于 2024-3-30 20:21:59 | 显示全部楼层


    谢谢楼主分享
    回复

    使用道具 举报

  • TA的每日心情
    开心
    昨天 16:20
  • 签到天数: 856 天

    [LV.10]以坛为家III

    1

    主题

    5470

    帖子

    329

    积分

    超级影迷

    Rank: 6Rank: 6

    积分
    329
    发表于 2024-3-30 20:34:10 | 显示全部楼层
    感谢分享好资源!
    回复

    使用道具 举报

  • TA的每日心情
    开心
    昨天 15:46
  • 签到天数: 642 天

    [LV.9]以坛为家II

    1

    主题

    1207

    帖子

    236

    积分

    高级影迷

    Rank: 4

    积分
    236
    发表于 2024-3-30 20:36:54 | 显示全部楼层
    感谢分享好资源!
    回复

    使用道具 举报

    您需要登录后才可以回帖 登录 | 立即注册

    本版积分规则

    QQ|Archiver|手机版|小黑屋|影迷乐园

    GMT+8, 2024-4-15 01:26 , Processed in 0.090121 second(s), 29 queries .

    Powered by Discuz! X3.4

    Copyright © 2001-2020, Tencent Cloud.

    快速回复 返回顶部 返回列表