请选择 进入手机版 | 继续访问电脑版

YMLY-影迷乐园-特效字幕 蓝光原盘 1080P 高清动漫电影电视剧

 找回密码
 立即注册
搜索
查看: 1490|回复: 73

[香港] [115][1994][1080p][老师早上好][国粤双语有字幕][20集全][黎明 古天乐][MKV][25.94GB]

  [复制链接]
  • TA的每日心情
    奋斗
    6 小时前
  • 签到天数: 1242 天

    [LV.10]以坛为家III

    240

    主题

    2892

    帖子

    8716

    积分

    影迷皇帝

    Rank: 20Rank: 20Rank: 20Rank: 20Rank: 20

    积分
    8716

    土豪勋章小土豪勋章富甲一方

    发表于 2024-6-4 14:40:15 | 显示全部楼层 |阅读模式


    ◎译  名 老师早上好/Class of Distinction
    ◎片  名 阿SIR早晨
    ◎年  代 1994
    ◎产  地 中国香港
    ◎类  别 剧情
    ◎语  言 粤语
    ◎上映日期 1994-10-24(中国香港)
    ◎豆瓣评分 7.4/10 from 1549 users
    ◎豆瓣链接 https://movie.douban.com/subject/2365072/
    ◎集  数 20
    ◎片  长 43
    ◎导  演 徐遇安 Yuk On Tsui
    ◎编  剧 石凯婷 Hoi Ting Shek
    ◎主  演 黎明 Leon Lai
           李绮虹 Theresa Lee
           简佩筠 Pui Kwan Kan
           林芷筠 Safina Lam
           夏萍 Ping Ha
           李影 Violet Li
           宣萱 Jessica Hester Hsuan
           周汶锜 Man-Kei Chow
           罗文 Roman Tam
           罗家英 Kar-Ying Law
           黄霑 James Wong
           张慧仪 Angie Cheung
           雷宇扬 Simon Lui
           古天乐 Louis Koo
           李中宁 Chung Ling Lee
           蒋克 Cheung Hak
           劉美珊 Mei Shan Lau
           孙季卿 Kwai-Hing Suen
           伍文生 Isaac Ng
           林家栋 Ka Tung Lam

    ◎简  介

     原来的广告界精英大保(黎明 饰)因事业失败加入了失业大军,见他整日无所事事,好友心怡(宣萱 饰)介绍他到一所中学担任代课老师。想想反正闲来无事,大保爽快答应了。学校里青春烂漫的学生勾起了大保的青春回忆,充满朝气的校园更使他重新振作。在学校工作时大保认识了热心的社工同心(李绮虹 饰)。在同心的感染下,大保对学生尤其是成绩不好的学生更加用心,他的真诚和热心渐渐获得学生认可,成了学校了最受欢迎的老师之一。
      日久相处中,大保爱上了同心,可惜同心早已有了男友建材,大保只能在一旁默默的爱着她。其实,同心也渐渐爱上了热忱善良的大保,两人在微妙的感情中,最终何去何从?

    1. General
    2. Unique ID                      : 196332089851803660257779104690888292550 (0x93B42F61FDA70528807103932220B8C6)
    3. Complete name                  : D:\Backup\Downloads\115download\Class.of.Distinction.S01E04.1080p.MyTVSuper.WEB-DL.AAC2.0.H.265-BlackTV.mkv
    4. Format                         : Matroska
    5. Format version                 : Version 4
    6. File size                      : 1.30 GiB
    7. Duration                       : 45 min 57 s
    8. Overall bit rate               : 4 038 kb/s
    9. Frame rate                     : 25.000 FPS
    10. Encoded date                   : 2023-03-01 05:16:35 UTC
    11. Writing application            : mkvmerge v65.0.0 ('Too Much') 64-bit
    12. Writing library                : libebml v1.4.2 + libmatroska v1.6.4

    13. Video
    14. ID                             : 1
    15. Format                         : HEVC
    16. Format/Info                    : High Efficiency Video Coding
    17. Format profile                 : Main@L4@Main
    18. Codec ID                       : V_MPEGH/ISO/HEVC
    19. Duration                       : 45 min 57 s
    20. Bit rate                       : 3 779 kb/s
    21. Width                          : 1 920 pixels
    22. Height                         : 1 080 pixels
    23. Display aspect ratio           : 16:9
    24. Frame rate mode                : Constant
    25. Frame rate                     : 25.000 FPS
    26. Color space                    : YUV
    27. Chroma subsampling             : 4:2:0
    28. Bit depth                      : 8 bits
    29. Bits/(Pixel*Frame)             : 0.073
    30. Stream size                    : 1.21 GiB (94%)
    31. Writing library                : VOLOHEVC
    32. Default                        : No
    33. Forced                         : No

    34. Audio #1
    35. ID                             : 2
    36. Format                         : AAC LC
    37. Format/Info                    : Advanced Audio Codec Low Complexity
    38. Codec ID                       : A_AAC-2
    39. Duration                       : 45 min 57 s
    40. Bit rate                       : 128 kb/s
    41. Channel(s)                     : 2 channels
    42. Channel layout                 : L R
    43. Sampling rate                  : 48.0 kHz
    44. Frame rate                     : 46.875 FPS (1024 SPF)
    45. Compression mode               : Lossy
    46. Stream size                    : 42.1 MiB (3%)
    47. Title                          : Cantonese
    48. Language                       : Chinese
    49. Default                        : No
    50. Forced                         : No

    51. Audio #2
    52. ID                             : 3
    53. Format                         : AAC LC
    54. Format/Info                    : Advanced Audio Codec Low Complexity
    55. Codec ID                       : A_AAC-2
    56. Duration                       : 45 min 57 s
    57. Bit rate                       : 128 kb/s
    58. Channel(s)                     : 2 channels
    59. Channel layout                 : L R
    60. Sampling rate                  : 48.0 kHz
    61. Frame rate                     : 46.875 FPS (1024 SPF)
    62. Compression mode               : Lossy
    63. Stream size                    : 42.1 MiB (3%)
    64. Title                          : Mandarin
    65. Language                       : Chinese
    66. Default                        : No
    67. Forced                         : No

    68. Text #1
    69. ID                             : 4
    70. Format                         : UTF-8
    71. Codec ID                       : S_TEXT/UTF8
    72. Codec ID/Info                  : UTF-8 Plain Text
    73. Duration                       : 42 min 59 s
    74. Bit rate                       : 81 b/s
    75. Frame rate                     : 0.307 FPS
    76. Count of elements              : 792
    77. Stream size                    : 25.8 KiB (0%)
    78. Title                          : Simplified
    79. Language                       : Chinese (Simplified)
    80. Default                        : Yes
    81. Forced                         : No

    82. Text #2
    83. ID                             : 5
    84. Format                         : UTF-8
    85. Codec ID                       : S_TEXT/UTF8
    86. Codec ID/Info                  : UTF-8 Plain Text
    87. Duration                       : 43 min 17 s
    88. Bit rate                       : 81 b/s
    89. Frame rate                     : 0.306 FPS
    90. Count of elements              : 794
    91. Stream size                    : 25.8 KiB (0%)
    92. Title                          : Traditional
    93. Language                       : Chinese (Traditional)
    94. Default                        : No
    95. Forced                         : No

    复制代码



    购买主题 已有 4 人购买  本主题需向作者支付 288 大洋 才能浏览
    回复

    使用道具 举报

  • TA的每日心情
    奋斗
    昨天 11:31
  • 签到天数: 1183 天

    [LV.10]以坛为家III

    0

    主题

    7942

    帖子

    757

    积分

    专业影迷

    Rank: 8Rank: 8

    积分
    757
    发表于 2024-6-4 17:14:09 | 显示全部楼层
    谢谢楼主分享
    回复

    使用道具 举报

  • TA的每日心情
    开心
    昨天 12:52
  • 签到天数: 540 天

    [LV.9]以坛为家II

    0

    主题

    427

    帖子

    23

    积分

    入门影迷

    Rank: 1

    积分
    23
    发表于 2024-6-4 19:31:30 | 显示全部楼层
    感谢帮主分享,真的很棒,加油!!!
    啊啊啊啊
    回复

    使用道具 举报

    该用户从未签到

    0

    主题

    178

    帖子

    186

    积分

    高级影迷

    Rank: 4

    积分
    186
    发表于 2024-6-4 20:18:03 | 显示全部楼层
    Big Thanks for Sharing.
    回复

    使用道具 举报

  • TA的每日心情
    奋斗
    前天 12:00
  • 签到天数: 499 天

    [LV.9]以坛为家II

    0

    主题

    1003

    帖子

    273

    积分

    超级影迷

    Rank: 6Rank: 6

    积分
    273
    发表于 2024-6-4 20:47:52 | 显示全部楼层
    感谢分享
    回复

    使用道具 举报

  • TA的每日心情
    开心
    4 天前
  • 签到天数: 734 天

    [LV.9]以坛为家II

    3

    主题

    1万

    帖子

    687

    积分

    专业影迷

    Rank: 8Rank: 8

    积分
    687
    发表于 2024-6-4 21:19:16 | 显示全部楼层
    感谢楼主,多谢分享好作品

    点评

    感谢楼主分享资源  详情 回复 发表于 2024-6-30 17:06
    回复

    使用道具 举报

  • TA的每日心情

    7 小时前
  • 签到天数: 718 天

    [LV.9]以坛为家II

    27

    主题

    4658

    帖子

    685

    积分

    专业影迷

    Rank: 8Rank: 8

    积分
    685
    发表于 2024-6-4 23:41:19 | 显示全部楼层
    感谢楼主分享资源

    点评

    谢谢楼主的分享  详情 回复 发表于 2024-6-5 13:54
    回复

    使用道具 举报

  • TA的每日心情
    开心
    昨天 21:56
  • 签到天数: 35 天

    [LV.5]常住居民I

    0

    主题

    205

    帖子

    32

    积分

    初级影迷

    Rank: 2

    积分
    32
    发表于 2024-6-4 23:45:14 | 显示全部楼层
    谢谢楼主的分享!这个绝对要顶!!!
    回复

    使用道具 举报

  • TA的每日心情
    开心
    12 小时前
  • 签到天数: 793 天

    [LV.10]以坛为家III

    0

    主题

    5221

    帖子

    1296

    积分

    资深影迷

    Rank: 10Rank: 10Rank: 10

    积分
    1296
    发表于 2024-6-5 00:09:31 | 显示全部楼层
    感谢楼主分享资源
    回复

    使用道具 举报

  • TA的每日心情
    奋斗
    15 小时前
  • 签到天数: 148 天

    [LV.7]常住居民III

    0

    主题

    809

    帖子

    148

    积分

    中级影迷

    Rank: 3Rank: 3

    积分
    148
    发表于 2024-6-5 00:26:15 | 显示全部楼层
    好东西,谢谢了。
    回复

    使用道具 举报

    您需要登录后才可以回帖 登录 | 立即注册

    本版积分规则

    QQ|Archiver|手机版|小黑屋|影迷乐园

    GMT+8, 2024-7-22 15:03 , Processed in 0.093058 second(s), 28 queries .

    Powered by Discuz! X3.4

    Copyright © 2001-2020, Tencent Cloud.

    快速回复 返回顶部 返回列表