请选择 进入手机版 | 继续访问电脑版

YMLY-影迷乐园-特效字幕 蓝光原盘 1080P 高清动漫电影电视剧

 找回密码
 立即注册
搜索
查看: 1200|回复: 46

[香港] [115][1080P][1982][猎鹰][刘德华 陈敏儿 叶德娴][共20集][粤语无字幕][MP4][24.03GB]

[复制链接]
  • TA的每日心情
    奋斗
    6 小时前
  • 签到天数: 1242 天

    [LV.10]以坛为家III

    240

    主题

    2892

    帖子

    8716

    积分

    影迷皇帝

    Rank: 20Rank: 20Rank: 20Rank: 20Rank: 20

    积分
    8716

    土豪勋章小土豪勋章富甲一方

    发表于 2024-6-6 10:23:09 | 显示全部楼层 |阅读模式


    ◎译  名 猎鹰/The Emissary
    ◎片  名 獵鷹
    ◎年  代 1982
    ◎产  地 中国香港
    ◎类  别 剧情
    ◎语  言 粤语
    ◎上映日期 1982-12-27(中国香港)
    ◎IMDb评分  0/10 from 0 users
    ◎IMDb链接  https://www.imdb.com/title/tt21624340/
    ◎豆瓣评分 7.7/10 from 983 users
    ◎豆瓣链接 https://movie.douban.com/subject/3408344/
    ◎集  数 20
    ◎片  长 43分钟
    ◎导  演 李添胜 Tim-Sing Lee
    ◎编  剧 曾淑娟 Shu-Chuan Tseng / 关展博 Edwin Chin-Pok Kwan
    ◎主  演 刘德华 Andy Lau
           陈敏儿 Barbara Chan
           叶德娴 Deanie Ip
           刘江 Kong Lau
           刘兆铭 Lau Siu Ming
           秦沛 Paul Chun
           欧阳震华 Bobbie Au-Yeung
           麦子云 Tzu-Yun Mai
           林俊贤 Wilson Lam
           艾威 Wei Ai
           周星驰 Stephen Chow
           梁朝伟 Tony Leung Chiu Wai
           罗国维 Kowk Wai Law
           祁岩
           戴志伟 Chi Wai Tai
           白文彪 Man-Biu Bak
           曾玮明 Bobby Tsang
           曾庆瑜 Hing Yue Chang
           许绍雄 Siu-Hung Hui
           关菊英 Susanna Kwan
           李国麟 Kwok-Lun Lee
           郑则仕 Kent Cheng
           焦雄 Hung Chiu
           胡美仪 Amy Hu
           陈安莹 On-Ying Chan
           梁鸿华 Tony Leung Hung-Wah
           麦飞霏

    ◎简  介

      这是一部描写新一代警官成长的过程的剧集。演员方面是演技派和新秀共冶一炉,计有刘德华、陈敏儿、李国麒、梁朝伟、陈安莹、叶德娴、刘兆铭、秦沛、陈有后等。故事内容主干是描述江大伟(刘德华)是一个充满理想的大学生投身警界,人考入帮办学堂受训,进而如何出身警官,而围绕在他身边却是各式各样的警务人员,他们的性格和背景均不同,于是做人方式便有所分别,其中虽然有害群之马,但也有尽忠职守的。鉴于毒枭的方式无天,江大伟接受上司的密令,布局遭人陷害革职,成为卧底神探,为贩毒头子(刘兆铭)的得力助手工作 ,虚与委蛇,实行搜集贩毒头子的犯罪证据。做了卧底的江大伟,表面上性情大变,得父亲戚干(刘江)和女友嘉琦(陈敏儿)的谅解,有冤无路诉,充分的描述了当警务人中的痛苦,他几以辛苦,搜集了许多罪证,终于成功。

    1. General
    2. Complete name                  : D:\Backup\Downloads\115download\獵鷹 (數碼修復版)7.myTVSUPER源码.mp4
    3. Format                         : MPEG-4
    4. Format profile                 : Base Media
    5. Codec ID                       : isom (isom/iso2/mp41)
    6. File size                      : 1.19 GiB
    7. Duration                       : 43 min 39 s
    8. Overall bit rate               : 3 917 kb/s
    9. Frame rate                     : 25.000 FPS
    10. Writing application            : Lavf59.27.100

    11. Video
    12. ID                             : 1
    13. Format                         : HEVC
    14. Format/Info                    : High Efficiency Video Coding
    15. Format profile                 : Main@L4@Main
    16. Codec ID                       : hvc1
    17. Codec ID/Info                  : High Efficiency Video Coding
    18. Duration                       : 43 min 39 s
    19. Bit rate                       : 3 781 kb/s
    20. Width                          : 1 920 pixels
    21. Height                         : 1 080 pixels
    22. Display aspect ratio           : 16:9
    23. Frame rate mode                : Constant
    24. Frame rate                     : 25.000 FPS
    25. Color space                    : YUV
    26. Chroma subsampling             : 4:2:0
    27. Bit depth                      : 8 bits
    28. Bits/(Pixel*Frame)             : 0.073
    29. Stream size                    : 1.15 GiB (97%)
    30. Writing library                : VOLOHEVC
    31. Language                       : English
    32. Codec configuration box        : hvcC

    33. Audio
    34. ID                             : 2
    35. Format                         : AAC LC
    36. Format/Info                    : Advanced Audio Codec Low Complexity
    37. Codec ID                       : mp4a-40-2
    38. Duration                       : 43 min 39 s
    39. Bit rate mode                  : Constant
    40. Bit rate                       : 128 kb/s
    41. Channel(s)                     : 2 channels
    42. Channel layout                 : L R
    43. Sampling rate                  : 48.0 kHz
    44. Frame rate                     : 46.875 FPS (1024 SPF)
    45. Compression mode               : Lossy
    46. Stream size                    : 40.0 MiB (3%)
    47. Language                       : English
    48. Default                        : Yes
    49. Alternate group                : 1

    复制代码




    购买主题 本主题需向作者支付 288 大洋 才能浏览
    回复

    使用道具 举报

  • TA的每日心情

    1 小时前
  • 签到天数: 772 天

    [LV.10]以坛为家III

    10

    主题

    5796

    帖子

    601

    积分

    专业影迷

    Rank: 8Rank: 8

    积分
    601
    发表于 2024-6-6 12:02:23 | 显示全部楼层
    感谢分享~~~!
    回复

    使用道具 举报

  • TA的每日心情
    开心
    2 小时前
  • 签到天数: 598 天

    [LV.9]以坛为家II

    4

    主题

    912

    帖子

    65

    积分

    初级影迷

    Rank: 2

    积分
    65
    发表于 2024-6-6 13:30:33 | 显示全部楼层
    感谢楼主分享
    回复

    使用道具 举报

  • TA的每日心情
    开心
    昨天 08:19
  • 签到天数: 1253 天

    [LV.10]以坛为家III

    0

    主题

    3627

    帖子

    254

    积分

    超级影迷

    Rank: 6Rank: 6

    积分
    254
    发表于 2024-6-6 16:46:02 | 显示全部楼层
    感谢楼主分享
    回复

    使用道具 举报

  • TA的每日心情
    开心
    15 小时前
  • 签到天数: 766 天

    [LV.10]以坛为家III

    4

    主题

    4471

    帖子

    876

    积分

    资深影迷

    Rank: 10Rank: 10Rank: 10

    积分
    876
    发表于 2024-6-6 16:59:47 | 显示全部楼层
    感谢楼主分享
    回复

    使用道具 举报

  • TA的每日心情
    开心
    昨天 12:52
  • 签到天数: 540 天

    [LV.9]以坛为家II

    0

    主题

    427

    帖子

    23

    积分

    入门影迷

    Rank: 1

    积分
    23
    发表于 2024-6-6 17:28:07 | 显示全部楼层
    感谢帮主分享,真的很棒,加油!!!
    啊啊啊啊
    回复

    使用道具 举报

  • TA的每日心情
    无聊
    6 小时前
  • 签到天数: 1272 天

    [LV.10]以坛为家III

    1

    主题

    5586

    帖子

    685

    积分

    专业影迷

    Rank: 8Rank: 8

    积分
    685
    发表于 2024-6-6 17:37:07 | 显示全部楼层
    感谢楼主分享
    回复

    使用道具 举报

  • TA的每日心情
    奋斗
    昨天 11:31
  • 签到天数: 1183 天

    [LV.10]以坛为家III

    0

    主题

    7942

    帖子

    757

    积分

    专业影迷

    Rank: 8Rank: 8

    积分
    757
    发表于 2024-6-6 17:38:24 | 显示全部楼层

    感谢楼主分享
    回复

    使用道具 举报

  • TA的每日心情
    开心
    4 小时前
  • 签到天数: 776 天

    [LV.10]以坛为家III

    34

    主题

    3305

    帖子

    1516

    积分

    稀有影迷

    Rank: 12Rank: 12Rank: 12

    积分
    1516

    小土豪勋章土豪勋章金话筒

    QQ
    发表于 2024-6-6 17:53:36 | 显示全部楼层
    感谢分享  
    人生得意须尽欢,莫使金樽空对月。
    回复

    使用道具 举报

  • TA的每日心情
    开心
    昨天 17:36
  • 签到天数: 930 天

    [LV.10]以坛为家III

    33

    主题

    6907

    帖子

    1943

    积分

    稀有影迷

    Rank: 12Rank: 12Rank: 12

    积分
    1943
    发表于 2024-6-6 18:42:34 | 显示全部楼层
    感谢分享。
    回复

    使用道具 举报

    您需要登录后才可以回帖 登录 | 立即注册

    本版积分规则

    QQ|Archiver|手机版|小黑屋|影迷乐园

    GMT+8, 2024-7-22 15:57 , Processed in 0.168732 second(s), 28 queries .

    Powered by Discuz! X3.4

    Copyright © 2001-2020, Tencent Cloud.

    快速回复 返回顶部 返回列表