请选择 进入手机版 | 继续访问电脑版

YMLY-影迷乐园-特效字幕 蓝光原盘 1080P 高清动漫电影电视剧

 找回密码
 立即注册
搜索
查看: 1295|回复: 54

[香港] [115][1996][1080P][天地男儿][国粤双语 简繁中字][郑少秋.罗嘉良][65集全][MKV][89.07GB]

[复制链接]
  • TA的每日心情
    奋斗
    7 小时前
  • 签到天数: 1242 天

    [LV.10]以坛为家III

    240

    主题

    2892

    帖子

    8716

    积分

    影迷皇帝

    Rank: 20Rank: 20Rank: 20Rank: 20Rank: 20

    积分
    8716

    土豪勋章小土豪勋章富甲一方

    发表于 2024-6-6 10:34:48 | 显示全部楼层 |阅读模式


    ◎译  名 天地男儿/Cold Blood Warm Heart/Tin dei nam yee
    ◎片  名 天地男兒
    ◎年  代 1996
    ◎产  地 中国香港
    ◎类  别 剧情
    ◎语  言 粤语
    ◎上映日期 1996-02-05(中国香港)
    ◎IMDb评分  7.7/10 from 56 users
    ◎IMDb链接  https://www.imdb.com/title/tt0855654/
    ◎豆瓣评分 8.6/10 from 27206 users
    ◎豆瓣链接 https://movie.douban.com/subject/1906453/
    ◎集  数 65
    ◎片  长 45分钟
    ◎导  演 戚其义 Jonathan Chik
    ◎编  剧 鲍伟聪 Alex Pao / 周旭明 Yuk-ming Chow
    ◎主  演 郑少秋 Adam Cheng
           罗嘉良 Gallen Law
           张智霖 Julian Cheung
           陈松伶 Adia Chan
           宣萱 Jessica Hester Hsuan
           古天乐 Louis Koo
           张可颐 Maggie Cheung Ho Yee
           邵卓尧 Cheuk-Yiu Siu
           戴少民 Siu Man Tai
           汤盈盈 Angela Tong
           陈荣峻 Wing Chun Chan
           郑雷 Lei Cheng
           陈展鹏 Ruco Chan
           黄志伟 Chi Wai Wong
           王维德 Wai Tak Wong
           林芷筠 Safina Lam
           彭子晴 Wailis Pang
           麦嘉伦 Ka Lun Mak
           古明华 Ming-Wah Koo
           吴咏红 Sher Ng
           梁健平 Kin Ping Leung
           邓英敏 Ying-Man Tang
           刘江 Kong Lau
           罗雪玲 Elaine Law
           马清仪 Ching-Yi Ma
           张济平 Jiping Zhang
           伍文生 Isaac Ng
           何嘉丽 Carrie Ho Ka Lei
           莫可欣 Hoi-Yan Mok
           孙季卿 Kwai-Hing Suen
           邓汝超 Yu-Chiu Tang
           杨证桦 Man Yeung
           林其欣 Ki Yan Lam
           罗君左 Gwan Joh Law
           戴耀明 Yiu-Ming Dia
           关海山 Hoi-Shan Kwan
           白茵 Yan Pak
           潘志文 Ji-man Poon
           鲍方 Fong Pau
           李子雄 Waise Lee
           伍咏薇 Christine Ng
           陈芷菁 Astrid Chan Chi Ching
           夏萍 Ping Ha
           麦长青 Cheung-Ching Mak
           蔡国庆 Kwok-Hing Choi
           江毅 Ai Kong
           郑家生 Ka Sang Cheung
           冯素波 So-Po Fung
           张凤妮 Betsy Cheung
           朱咪咪 Mimi Chu
           李国麟 Kwok-Lun Lee
           艾威 Wei Ai
           郭耀明 Yiu Ming Kwok
           李成昌 Shing-Cheung Lee
           林漪娸 Yvonne Lam
           蒋志光 Chi-Kwong Cheung
           张兆辉 Siu-Fai Cheung

    ◎简  介

       徐永邦(郑少秋 饰)痛恨富豪父亲叶胜(关海山 饰)当年抛妻弃子。自小被养父徐坚(鲍方 饰)培养,后来加入了警队,而徐坚的亲生儿子嘉立(罗嘉良 饰)也成为了警察,不久更晋升为高级督察。
      永邦同夫异母的弟弟叶永基牵涉到了一宗命案里,永邦及上司罗子建(张智霖 饰)因此被停职,幸得线人陈飞行(张兆辉 饰)的帮助,永及才洗脱了罪名,与子建冰释前嫌。永邦与子建的姐姐惠芳展开恋情,但波折不断。
      子建与好友叶承康(古天乐 饰)同时爱上了方巧容(陈松伶 饰),同时嘉立一直喜欢永基的女儿叶晓冰(张可颐 饰)也爱着子建……
      一段段断豪门恩怨,儿女情仇,该如何解决?

    1. General
    2. Unique ID                      : 102709302117721685632627090416489769818 (0x4D451790B0F701AA5169D7E536ECAB5A)
    3. Complete name                  : D:\Backup\Downloads\115download\EP03.mkv
    4. Format                         : Matroska
    5. Format version                 : Version 4
    6. File size                      : 1.36 GiB
    7. Duration                       : 46 min 18 s
    8. Overall bit rate mode          : Variable
    9. Overall bit rate               : 4 215 kb/s
    10. Frame rate                     : 30.000 FPS
    11. Encoded date                   : 2020-05-21 00:23:22 UTC
    12. Writing application            : mkvmerge v29.0.0 ('Like It Or Not') 32-bit
    13. Writing library                : libebml v1.3.6 + libmatroska v1.4.9

    14. Video
    15. ID                             : 1
    16. Format                         : AVC
    17. Format/Info                    : Advanced Video Codec
    18. Format profile                 : Main@L4
    19. Format settings                : CABAC / 1 Ref Frames
    20. Format settings, CABAC         : Yes
    21. Format settings, Reference fra : 1 frame
    22. Codec ID                       : V_MPEG4/ISO/AVC
    23. Duration                       : 46 min 18 s
    24. Bit rate mode                  : Variable
    25. Bit rate                       : 3 828 kb/s
    26. Maximum bit rate               : 11.7 Mb/s
    27. Width                          : 1 920 pixels
    28. Height                         : 1 080 pixels
    29. Display aspect ratio           : 16:9
    30. Frame rate mode                : Constant
    31. Frame rate                     : 30.000 FPS
    32. Color space                    : YUV
    33. Chroma subsampling             : 4:2:0
    34. Bit depth                      : 8 bits
    35. Scan type                      : Progressive
    36. Bits/(Pixel*Frame)             : 0.062
    37. Stream size                    : 1.24 GiB (91%)
    38. Language                       : English
    39. Default                        : Yes
    40. Forced                         : No

    41. Audio #1
    42. ID                             : 2
    43. Format                         : AC-3
    44. Format/Info                    : Audio Coding 3
    45. Commercial name                : Dolby Digital
    46. Codec ID                       : A_AC3
    47. Duration                       : 46 min 17 s
    48. Bit rate mode                  : Constant
    49. Bit rate                       : 192 kb/s
    50. Channel(s)                     : 2 channels
    51. Channel layout                 : L R
    52. Sampling rate                  : 48.0 kHz
    53. Frame rate                     : 31.250 FPS (1536 SPF)
    54. Compression mode               : Lossy
    55. Delay relative to video        : -5 ms
    56. Stream size                    : 63.6 MiB (5%)
    57. Title                          : 国语
    58. Language                       : Chinese
    59. Service kind                   : Complete Main
    60. Default                        : Yes
    61. Forced                         : No
    62. Dialog Normalization           : -31 dB
    63. dialnorm_Average               : -31 dB
    64. dialnorm_Minimum               : -31 dB
    65. dialnorm_Maximum               : -31 dB

    66. Audio #2
    67. ID                             : 3
    68. Format                         : AC-3
    69. Format/Info                    : Audio Coding 3
    70. Commercial name                : Dolby Digital
    71. Codec ID                       : A_AC3
    72. Duration                       : 46 min 18 s
    73. Bit rate mode                  : Constant
    74. Bit rate                       : 192 kb/s
    75. Channel(s)                     : 2 channels
    76. Channel layout                 : L R
    77. Sampling rate                  : 48.0 kHz
    78. Frame rate                     : 31.250 FPS (1536 SPF)
    79. Compression mode               : Lossy
    80. Delay relative to video        : -5 ms
    81. Stream size                    : 63.6 MiB (5%)
    82. Title                          : 粤语
    83. Language                       : English
    84. Service kind                   : Complete Main
    85. Default                        : No
    86. Forced                         : No
    87. Dialog Normalization           : -31 dB
    88. dialnorm_Average               : -31 dB
    89. dialnorm_Minimum               : -31 dB
    90. dialnorm_Maximum               : -31 dB

    91. Text #1
    92. ID                             : 4
    93. Format                         : ASS
    94. Codec ID                       : S_TEXT/ASS
    95. Codec ID/Info                  : Advanced Sub Station Alpha
    96. Duration                       : 42 min 58 s
    97. Bit rate                       : 197 b/s
    98. Frame rate                     : 0.340 FPS
    99. Count of elements              : 876
    100. Compression mode               : Lossless
    101. Stream size                    : 62.2 KiB (0%)
    102. Title                          : 繁体
    103. Language                       : Chinese
    104. Default                        : Yes
    105. Forced                         : No

    106. Text #2
    107. ID                             : 5
    108. Format                         : UTF-8
    109. Codec ID                       : S_TEXT/UTF8
    110. Codec ID/Info                  : UTF-8 Plain Text
    111. Duration                       : 42 min 58 s
    112. Bit rate                       : 73 b/s
    113. Frame rate                     : 0.339 FPS
    114. Count of elements              : 873
    115. Stream size                    : 23.0 KiB (0%)
    116. Title                          : 简体
    117. Language                       : Chinese
    118. Default                        : No
    119. Forced                         : No

    复制代码




    购买主题 已有 7 人购买  本主题需向作者支付 288 大洋 才能浏览
    回复

    使用道具 举报

  • TA的每日心情

    2 小时前
  • 签到天数: 772 天

    [LV.10]以坛为家III

    10

    主题

    5796

    帖子

    601

    积分

    专业影迷

    Rank: 8Rank: 8

    积分
    601
    发表于 2024-6-6 12:02:03 | 显示全部楼层
    感谢分享~~~!
    回复

    使用道具 举报

  • TA的每日心情
    开心
    3 小时前
  • 签到天数: 598 天

    [LV.9]以坛为家II

    4

    主题

    912

    帖子

    65

    积分

    初级影迷

    Rank: 2

    积分
    65
    发表于 2024-6-6 13:30:17 | 显示全部楼层
    感谢楼主分享
    回复

    使用道具 举报

  • TA的每日心情
    开心
    3 小时前
  • 签到天数: 36 天

    [LV.5]常住居民I

    1

    主题

    243

    帖子

    99

    积分

    中级影迷

    Rank: 3Rank: 3

    积分
    99
    发表于 2024-6-6 15:04:25 | 显示全部楼层
    感谢楼主分享
    回复

    使用道具 举报

  • TA的每日心情
    开心
    16 小时前
  • 签到天数: 766 天

    [LV.10]以坛为家III

    4

    主题

    4471

    帖子

    876

    积分

    资深影迷

    Rank: 10Rank: 10Rank: 10

    积分
    876
    发表于 2024-6-6 16:59:30 | 显示全部楼层
    感谢楼主分享
    回复

    使用道具 举报

  • TA的每日心情
    开心
    昨天 08:19
  • 签到天数: 1253 天

    [LV.10]以坛为家III

    0

    主题

    3627

    帖子

    254

    积分

    超级影迷

    Rank: 6Rank: 6

    积分
    254
    发表于 2024-6-6 17:06:48 | 显示全部楼层

    感谢楼主分享
    回复

    使用道具 举报

  • TA的每日心情
    开心
    昨天 12:52
  • 签到天数: 540 天

    [LV.9]以坛为家II

    0

    主题

    427

    帖子

    23

    积分

    入门影迷

    Rank: 1

    积分
    23
    发表于 2024-6-6 17:27:04 | 显示全部楼层
    感谢帮主分享,真的很棒,加油!!!
    啊啊啊啊
    回复

    使用道具 举报

  • TA的每日心情
    无聊
    6 小时前
  • 签到天数: 1272 天

    [LV.10]以坛为家III

    1

    主题

    5586

    帖子

    685

    积分

    专业影迷

    Rank: 8Rank: 8

    积分
    685
    发表于 2024-6-6 17:37:58 | 显示全部楼层
    感谢楼主分享感谢楼主分享
    回复

    使用道具 举报

  • TA的每日心情
    奋斗
    昨天 11:31
  • 签到天数: 1183 天

    [LV.10]以坛为家III

    0

    主题

    7942

    帖子

    757

    积分

    专业影迷

    Rank: 8Rank: 8

    积分
    757
    发表于 2024-6-6 17:38:46 | 显示全部楼层

    感谢楼主分享
    回复

    使用道具 举报

  • TA的每日心情
    开心
    4 小时前
  • 签到天数: 776 天

    [LV.10]以坛为家III

    34

    主题

    3305

    帖子

    1516

    积分

    稀有影迷

    Rank: 12Rank: 12Rank: 12

    积分
    1516

    小土豪勋章土豪勋章金话筒

    QQ
    发表于 2024-6-6 17:53:18 | 显示全部楼层
    感谢分享  
    人生得意须尽欢,莫使金樽空对月。
    回复

    使用道具 举报

    您需要登录后才可以回帖 登录 | 立即注册

    本版积分规则

    QQ|Archiver|手机版|小黑屋|影迷乐园

    GMT+8, 2024-7-22 16:27 , Processed in 0.090806 second(s), 28 queries .

    Powered by Discuz! X3.4

    Copyright © 2001-2020, Tencent Cloud.

    快速回复 返回顶部 返回列表