请选择 进入手机版 | 继续访问电脑版

YMLY-影迷乐园-特效字幕 蓝光原盘 1080P 高清动漫电影电视剧

 找回密码
 立即注册
搜索
查看: 1425|回复: 73

[日本] [百度][1975][血疑][山口百惠 三浦友和 宇津井健][29集全][国日双语 外挂中字][MKV][82.77GB]

  [复制链接]
  • TA的每日心情
    慵懒
    9 小时前
  • 签到天数: 1214 天

    [LV.10]以坛为家III

    234

    主题

    2856

    帖子

    8067

    积分

    影迷皇帝

    Rank: 20Rank: 20Rank: 20Rank: 20Rank: 20

    积分
    8067

    土豪勋章小土豪勋章富甲一方

    发表于 2024-6-10 13:48:14 | 显示全部楼层 |阅读模式


    ◎译  名 血疑/Akai giwaku/赤的疑惑/赤色疑惑
    ◎片  名 赤い疑惑
    ◎年  代 1975
    ◎产  地 日本
    ◎类  别 剧情 / 爱情
    ◎语  言 日语
    ◎上映日期 1975-10-03(日本)
    ◎IMDb评分  7.7/10 from 36 users
    ◎IMDb链接  https://www.imdb.com/title/tt1344043/
    ◎豆瓣评分 8.7/10 from 6405 users
    ◎豆瓣链接 https://movie.douban.com/subject/2063540/
    ◎集  数 29
    ◎片  长 50分钟
    ◎导  演 降旗康男 Yasuo Furuhata / 国原俊明  / 濑川昌治
    ◎编  剧 桥田寿贺子 Sugako Hashida / 鸭井达比古 Tatsuhiko Kamoi
    ◎主  演 山口百惠 Momoe Yamaguchi
           三浦友和 Tomokazu Miura
           宇津井健 Ken Utsui
           八千草薰 Kaoru Yachigusa
           渡边美佐子 Misako Watanabe
           长门裕之 Hiroyuki Nagato
           原知佐子 Chisako Hara
           岸惠子 Keiko Kishi
           中条静夫 Shizuo Chûjô
           榊原留美 Rumi Sakakibara
           姚锡娟 Xijuan Yao
           宋文姝
           柏崇新 Chongxin Bai
           简肇强
           夏夕介 Yusuke Natsu
           河原崎长一郎 Choichiro Kawarazaki
           内藤武敏 Taketoshi Naitô
           滨田光夫 Mitsuo Hamada
           大山信代 Nobuyo Ohyama
           高桥昌也 Masaya Takahashi
           小池朝雄 Asao Koike
           松村达雄 Tatsuo Matsumura
           王笛 Di Wang

    ◎简  介

       花季少女幸子(山口百惠 饰)前往东都大学医学院探望父亲大岛茂(宇津井健 饰)时,意外遭遇放射性钴60的泄漏事件。不久之后,幸子的健康每况愈下,日渐衰落。大岛茂敏锐地觉察到,宝贝女儿很可能在上次事故中遭到放射物质的感染而罹患致命的血液病,他的心中万分焦急。在此期间,幸子与有过一面之缘的医学院学生相良光夫(三浦友和 饰)相识相知,两颗年轻的心越走越近。无奈光夫的父亲相良英治(长门裕之 饰)教授千方百计在工作中排挤大岛茂,他的母亲敏江(八千草薫 饰)也不同意儿子与幸子的交往。
      不久之后,两个年轻人更得知一个惊天的秘密,他们那孱弱的爱恋将何去何从…

    1. General
    2. Unique ID                      : 171826565853863889632058388290726264358 (0x814497C47CEA47EEB0432374AF47FE26)
    3. Complete name                  : E:\BaiduNetdiskDownload\赤い疑惑 #1.mkv
    4. Format                         : Matroska
    5. Format version                 : Version 4
    6. File size                      : 2.85 GiB
    7. Duration                       : 46 min 36 s
    8. Overall bit rate mode          : Variable
    9. Overall bit rate               : 8 768 kb/s
    10. Frame rate                     : 24.153 FPS
    11. Encoded date                   : 2021-07-15 09:27:01 UTC
    12. Writing application            : mkvmerge v8.5.2 ('Crosses') 64bit
    13. Writing library                : libebml v1.3.3 + libmatroska v1.4.4

    14. Video
    15. ID                             : 1
    16. Format                         : MPEG Video
    17. Format version                 : Version 2
    18. Format profile                 : Main@High
    19. Format settings                : CustomMatrix / BVOP
    20. Format settings, BVOP          : Yes
    21. Format settings, Matrix        : Custom
    22. Format settings, GOP           : Variable
    23. Format settings, picture struc : Frame
    24. Codec ID                       : V_MPEG2
    25. Codec ID/Info                  : MPEG 1 or 2 Video
    26. Duration                       : 46 min 35 s
    27. Bit rate mode                  : Variable
    28. Bit rate                       : 8 496 kb/s
    29. Width                          : 1 440 pixels
    30. Height                         : 1 080 pixels
    31. Display aspect ratio           : 16:9
    32. Frame rate mode                : Variable
    33. Frame rate                     : 24.153 FPS
    34. Original frame rate            : 29.970 (30000/1001) FPS
    35. Standard                       : Component
    36. Color space                    : YUV
    37. Chroma subsampling             : 4:2:0
    38. Bit depth                      : 8 bits
    39. Scan type                      : Interlaced
    40. Scan order                     : Top Field First
    41. Compression mode               : Lossy
    42. Bits/(Pixel*Frame)             : 0.226
    43. Time code of first frame       : 00:00:00:00
    44. Time code source               : Group of pictures header
    45. GOP, Open/Closed               : Open
    46. Stream size                    : 2.77 GiB (97%)
    47. Default                        : Yes
    48. Forced                         : No
    49. Color primaries                : BT.709
    50. Transfer characteristics       : BT.709
    51. Matrix coefficients            : BT.709

    52. Audio #1
    53. ID                             : 2
    54. Format                         : AC-3
    55. Format/Info                    : Audio Coding 3
    56. Commercial name                : Dolby Digital
    57. Codec ID                       : A_AC3
    58. Duration                       : 46 min 35 s
    59. Bit rate mode                  : Constant
    60. Bit rate                       : 128 kb/s
    61. Channel(s)                     : 2 channels
    62. Channel layout                 : L R
    63. Sampling rate                  : 48.0 kHz
    64. Frame rate                     : 31.250 FPS (1536 SPF)
    65. Compression mode               : Lossy
    66. Delay relative to video        : -72 ms
    67. Stream size                    : 42.7 MiB (1%)
    68. Language                       : Chinese
    69. Service kind                   : Complete Main
    70. Default                        : Yes
    71. Forced                         : Yes
    72. Dialog Normalization           : -31 dB
    73. dialnorm_Average               : -31 dB
    74. dialnorm_Minimum               : -31 dB
    75. dialnorm_Maximum               : -31 dB

    76. Audio #2
    77. ID                             : 3
    78. Format                         : AAC LC
    79. Format/Info                    : Advanced Audio Codec Low Complexity
    80. Codec ID                       : A_AAC-2
    81. Duration                       : 46 min 36 s
    82. Bit rate                       : 141 kb/s
    83. Channel(s)                     : 2 channels
    84. Channel layout                 : L R
    85. Sampling rate                  : 48.0 kHz
    86. Frame rate                     : 46.875 FPS (1024 SPF)
    87. Compression mode               : Lossy
    88. Delay relative to video        : -72 ms
    89. Stream size                    : 46.9 MiB (2%)
    90. Language                       : Japanese
    91. Default                        : No
    92. Forced                         : No

    复制代码





    购买主题 已有 5 人购买  本主题需向作者支付 288 大洋 才能浏览
    回复

    使用道具 举报

  • TA的每日心情
    擦汗
    昨天 18:20
  • 签到天数: 1375 天

    [LV.10]以坛为家III

    6

    主题

    9723

    帖子

    500

    积分

    专业影迷

    Rank: 8Rank: 8

    积分
    500
    发表于 2024-6-10 14:20:17 | 显示全部楼层

    感谢LZ分享
    回复

    使用道具 举报

  • TA的每日心情
    开心
    6 小时前
  • 签到天数: 838 天

    [LV.10]以坛为家III

    0

    主题

    1514

    帖子

    335

    积分

    超级影迷

    Rank: 6Rank: 6

    积分
    335
    发表于 2024-6-10 14:31:47 | 显示全部楼层
    感谢LZ分享
    回复

    使用道具 举报

  • TA的每日心情
    开心
    17 小时前
  • 签到天数: 736 天

    [LV.9]以坛为家II

    4

    主题

    4394

    帖子

    848

    积分

    资深影迷

    Rank: 10Rank: 10Rank: 10

    积分
    848
    发表于 2024-6-10 14:34:58 | 显示全部楼层
    每个人都成了嫌疑犯
    回复

    使用道具 举报

  • TA的每日心情
    开心
    16 小时前
  • 签到天数: 668 天

    [LV.9]以坛为家II

    0

    主题

    1009

    帖子

    227

    积分

    高级影迷

    Rank: 4

    积分
    227
    发表于 2024-6-10 17:45:44 | 显示全部楼层
    感谢大大无私分享超经典日剧资源
    回复

    使用道具 举报

  • TA的每日心情
    开心
    16 小时前
  • 签到天数: 964 天

    [LV.10]以坛为家III

    15

    主题

    4084

    帖子

    459

    积分

    专业影迷

    Rank: 8Rank: 8

    积分
    459
    发表于 2024-6-10 19:47:24 | 显示全部楼层
    没有24集外挂字幕。介意的话不要购买。
    回复

    使用道具 举报

  • TA的每日心情
    开心
    4 天前
  • 签到天数: 10 天

    [LV.3]偶尔看看II

    0

    主题

    19

    帖子

    2

    积分

    入门影迷

    Rank: 1

    积分
    2
    发表于 2024-6-10 21:22:45 | 显示全部楼层
    感谢无私分享

    点评

    谢谢分享好资源  详情 回复 发表于 2024-6-12 14:37
    回复

    使用道具 举报

  • TA的每日心情
    开心
    7 小时前
  • 签到天数: 1841 天

    [LV.Master]伴坛终老

    39

    主题

    1万

    帖子

    2168

    积分

    稀有影迷

    Rank: 12Rank: 12Rank: 12

    积分
    2168
    发表于 2024-6-10 21:49:59 | 显示全部楼层
    又见好资源,谢谢!
    回复

    使用道具 举报

  • TA的每日心情
    开心
    前天 01:24
  • 签到天数: 520 天

    [LV.9]以坛为家II

    3

    主题

    3731

    帖子

    448

    积分

    超级影迷

    Rank: 6Rank: 6

    积分
    448
    发表于 2024-6-10 23:35:47 | 显示全部楼层
    谢谢楼主分享优质资源,希望影迷乐园越办越好!~
    回复

    使用道具 举报

  • TA的每日心情

    8 小时前
  • 签到天数: 1241 天

    [LV.10]以坛为家III

    1

    主题

    5402

    帖子

    638

    积分

    专业影迷

    Rank: 8Rank: 8

    积分
    638
    发表于 2024-6-11 00:00:45 | 显示全部楼层
    感谢LZ分享感谢LZ分享
    回复

    使用道具 举报

    您需要登录后才可以回帖 登录 | 立即注册

    本版积分规则

    QQ|Archiver|手机版|小黑屋|影迷乐园

    GMT+8, 2024-6-21 17:55 , Processed in 0.093605 second(s), 28 queries .

    Powered by Discuz! X3.4

    Copyright © 2001-2020, Tencent Cloud.

    快速回复 返回顶部 返回列表