请选择 进入手机版 | 继续访问电脑版

YMLY-影迷乐园-特效字幕 蓝光原盘 1080P 高清动漫电影电视剧

 找回密码
 立即注册
搜索
查看: 2674|回复: 17

[香港] [磁力+百度][2001][1080P][寻秦记][国粤双语中字][古天乐.江华][40集全][TS][71.72GB][Jade.A.Step.Into.The.Past.HDTV.1080i.H264.2Audio-HDSTV]

[复制链接]
  • TA的每日心情
    奋斗
    2020-3-1 21:46
  • 签到天数: 446 天

    [LV.9]以坛为家II

    2842

    主题

    3397

    帖子

    2万

    积分

    影迷皇帝

    Rank: 20Rank: 20Rank: 20Rank: 20Rank: 20

    积分
    21218

    贵族勋章土豪勋章小土豪勋章主题达人百分百好孩子内测勋章最佳新人影迷女神十二生肖之猪水瓶座勋章富甲一方

    发表于 2018-9-30 07:04:22 | 显示全部楼层 |阅读模式

    ◎译  名 AStepIntoThePast
    ◎片  名 寻秦记
    ◎年  代 2001
    ◎产  地 香港
    ◎类  别 剧情/喜剧/历史
    ◎语  言 粤语
    ◎上映日期 2001-10-15(香港)
    ◎豆瓣评分 8.3/10 from 58,917 users
    ◎豆瓣链接 https://movie.douban.com/subject/2983389/
    ◎集  数 40
    ◎片  长 45分钟
    ◎导  演 石铭泉 Simon Sek / 刘顺安 / 林子欣 / 吴锦源 Gam-Yuen Ng / 文伟鸿 Jazz Boon
    ◎主  演 古天乐 Louis Koo
          江华 Kwong Wa
          宣萱 Jessica Hester Hsuan
          郭羡妮 Sonija Kwok
          林峰 Raymond Lam
          滕丽名 Joyce Tang
          郑雪儿 Michelle Saram
          雪梨 Lei Suet
          郭峰 Fung Kwok

    ◎简  介

      21世纪特种部队人员项少龙(古天乐 饰)决意要参加穿梭时空的研究,是为了要挽回自己的爱情。但由于时光机的数据出错,把少龙带到了战国时期。
      当时的嬴政(林峰 饰)还没有登上帝位,更被囚禁于赵国。少龙为了能返回未来,便不惜一切帮助嬴政顺利登上帝位。由于少龙的机智过人与特殊身份,他的能力得到了众人的赏识,因此他也遭到了多方奸狡之人的暗算。
      在腹背受敌的情况下,生性风流的少龙也纠缠上一段复杂的四角恋爱关系。到底少龙能否协助嬴政赢得天下呢?他会如何处理自己与隔世恋人的情缘呢?
    1. General
    2. Format                         : MPEG-TS
    3. File size                      : 1.80 GiB
    4. Duration                       : 44 min 36 s
    5. Overall bit rate mode          : Variable
    6. Overall bit rate               : 5 766 kb/s
    7. Maximum Overall bit rate       : 35.5 Mb/s

    8. Video
    9. ID                             : 4113 (0x1011)
    10. Menu ID                        : 1 (0x1)
    11. Format                         : AVC
    12. Format/Info                    : Advanced Video Codec
    13. Format profile                 : High@L4.1
    14. Format settings, CABAC         : Yes
    15. Format settings, ReFrames      : 3 frames
    16. Codec ID                       : 27
    17. Duration                       : 44 min 36 s
    18. Bit rate mode                  : Variable
    19. Bit rate                       : 5 093 kb/s
    20. Maximum bit rate               : 8 000 kb/s
    21. Width                          : 1 440 pixels
    22. Height                         : 1 080 pixels
    23. Display aspect ratio           : 16:9
    24. Frame rate                     : 25.000 FPS
    25. Standard                       : PAL
    26. Color space                    : YUV
    27. Chroma subsampling             : 4:2:0
    28. Bit depth                      : 8 bits
    29. Scan type                      : Interlaced
    30. Scan type, store method        : Separated fields
    31. Scan order                     : Top Field First
    32. Bits/(Pixel*Frame)             : 0.131
    33. Stream size                    : 1.59 GiB (88%)
    34. Language                       : Chinese
    35. Color range                    : Limited
    36. Color primaries                : BT.709
    37. Transfer characteristics       : BT.709
    38. Matrix coefficients            : BT.709

    39. Audio #1
    40. ID                             : 4352 (0x1100)
    41. Menu ID                        : 1 (0x1)
    42. Format                         : AC-3
    43. Format/Info                    : Audio Coding 3
    44. Format settings, Endianness    : Big
    45. Codec ID                       : 129
    46. Duration                       : 44 min 36 s
    47. Bit rate mode                  : Constant
    48. Bit rate                       : 192 kb/s
    49. Channel(s)                     : 2 channels
    50. Channel positions              : Front: L R
    51. Sampling rate                  : 48.0 kHz
    52. Frame rate                     : 31.250 FPS (1536 spf)
    53. Bit depth                      : 16 bits
    54. Compression mode               : Lossy
    55. Stream size                    : 61.3 MiB (3%)
    56. Language                       : Chinese
    57. Service kind                   : Complete Main

    58. Audio #2
    59. ID                             : 4353 (0x1101)
    60. Menu ID                        : 1 (0x1)
    61. Format                         : AC-3
    62. Format/Info                    : Audio Coding 3
    63. Format settings, Endianness    : Big
    64. Codec ID                       : 129
    65. Duration                       : 44 min 36 s
    66. Bit rate mode                  : Constant
    67. Bit rate                       : 192 kb/s
    68. Channel(s)                     : 2 channels
    69. Channel positions              : Front: L R
    70. Sampling rate                  : 48.0 kHz
    71. Frame rate                     : 31.250 FPS (1536 spf)
    72. Bit depth                      : 16 bits
    73. Compression mode               : Lossy
    74. Stream size                    : 61.3 MiB (3%)
    75. Language                       : Chinese
    76. Service kind                   : Complete Main

    77. Text #1
    78. ID                             : 4608 (0x1200)
    79. Menu ID                        : 1 (0x1)
    80. Format                         : PGS
    81. Codec ID                       : 144
    82. Delay relative to video        : 22 s 933 ms
    83. Language                       : Chinese

    84. Text #2
    85. ID                             : 4609 (0x1201)
    86. Menu ID                        : 1 (0x1)
    87. Format                         : PGS
    88. Codec ID                       : 144
    89. Delay relative to video        : 22 s 933 ms
    90. Language                       : Chinese
    复制代码



    购买主题 已有 13 人购买  本主题需向作者支付 30 大洋 才能浏览
    最近比较忙,有失效的链接和问题请在这个帖子反馈,超版会帮忙修复:http://hdymly.com/forum.php?mod=viewthread&tid=16045
    回复

    使用道具 举报

    该用户从未签到

    0

    主题

    362

    帖子

    614

    积分

    专业影迷

    Rank: 8Rank: 8

    积分
    614
    发表于 2018-11-12 10:24:37 | 显示全部楼层
    支持最好的寻秦记  
    回复

    使用道具 举报

    该用户从未签到

    0

    主题

    1

    帖子

    24

    积分

    入门影迷

    Rank: 1

    积分
    24
    发表于 2020-2-15 22:18:10 | 显示全部楼层
    怎么下载?

    点评

    已更新了百度云链接  发表于 2020-2-15 23:34
    回复

    使用道具 举报

  • TA的每日心情
    擦汗
    昨天 13:22
  • 签到天数: 91 天

    [LV.6]常住居民II

    0

    主题

    250

    帖子

    26

    积分

    初级影迷

    Rank: 2

    积分
    26
    发表于 2020-2-19 09:19:48 | 显示全部楼层
    谢谢大佬分享
    回复

    使用道具 举报

  • TA的每日心情
    难过
    5 天前
  • 签到天数: 125 天

    [LV.7]常住居民III

    3

    主题

    237

    帖子

    22

    积分

    入门影迷

    Rank: 1

    积分
    22
    发表于 2020-4-14 15:20:38 | 显示全部楼层
    这个是经典啊,感谢分享~
    回复

    使用道具 举报

  • TA的每日心情
    擦汗
    前天 14:36
  • 签到天数: 157 天

    [LV.7]常住居民III

    1

    主题

    272

    帖子

    38

    积分

    初级影迷

    Rank: 2

    积分
    38
    发表于 2020-4-28 18:47:48 | 显示全部楼层
    支持,支持
    回复

    使用道具 举报

    该用户从未签到

    0

    主题

    17

    帖子

    10

    积分

    入门影迷

    Rank: 1

    积分
    10
    发表于 2020-7-11 01:11:03 | 显示全部楼层
    太金典了,谢谢大佬分享
    回复

    使用道具 举报

    该用户从未签到

    0

    主题

    17

    帖子

    10

    积分

    入门影迷

    Rank: 1

    积分
    10
    发表于 2020-7-11 01:13:14 | 显示全部楼层
    取消分享了啊?!
    回复

    使用道具 举报

    该用户从未签到

    0

    主题

    19

    帖子

    8

    积分

    入门影迷

    Rank: 1

    积分
    8
    发表于 2020-8-9 21:12:17 | 显示全部楼层
    最喜欢的穿越剧,感谢分享!
    回复

    使用道具 举报

    该用户从未签到

    0

    主题

    19

    帖子

    8

    积分

    入门影迷

    Rank: 1

    积分
    8
    发表于 2020-8-9 21:15:50 | 显示全部楼层
    百度网盘链接失效,能否补一下,谢谢楼主!
    回复

    使用道具 举报

    您需要登录后才可以回帖 登录 | 立即注册

    本版积分规则

    QQ|Archiver|手机版|小黑屋|影迷乐园

    GMT+8, 2021-4-15 07:02 , Processed in 0.086005 second(s), 28 queries .

    Powered by Discuz! X3.4

    Copyright © 2001-2020, Tencent Cloud.

    快速回复 返回顶部 返回列表