请选择 进入手机版 | 继续访问电脑版

YMLY-影迷乐园-特效字幕 蓝光原盘 1080P 高清动漫电影电视剧

 找回密码
 立即注册
搜索
查看: 929|回复: 52

[香港] [115][1984-1987][1080P][新扎师兄系列][粤语内封简繁中字][3部全][MKV][141.42GB][MYTV]

[复制链接]
  • TA的每日心情
    奋斗
    6 小时前
  • 签到天数: 1242 天

    [LV.10]以坛为家III

    240

    主题

    2892

    帖子

    8716

    积分

    影迷皇帝

    Rank: 20Rank: 20Rank: 20Rank: 20Rank: 20

    积分
    8716

    土豪勋章小土豪勋章富甲一方

    发表于 2024-6-14 10:46:16 | 显示全部楼层 |阅读模式


    ◎译  名 新扎师兄/Police Cadet/San jaat si hing
    ◎片  名 新紮師兄
    ◎年  代 1984
    ◎产  地 中国香港
    ◎类  别 动作
    ◎语  言 粤语
    ◎上映日期 1984-10-29(中国香港)
    ◎IMDb评分  8/10 from 47 users
    ◎IMDb链接  https://www.imdb.com/title/tt0449763/
    ◎豆瓣评分 7.8/10 from 2216 users
    ◎豆瓣链接 https://movie.douban.com/subject/1456472/
    ◎集  数 40
    ◎片  长 40分钟
    ◎导  演 招振强 Chun Keung Chiu / 潘文杰 Man Kit Poon / 梁材远 Choi-Yuen Leung / 余凯荣
    ◎编  剧 邓特希 Tut-hei Tang / 韦家辉 Ka-Fai Wai / 曾瑾昌 Kan-Cheung Tsang / 司徒锦源 Kam-Yuen Szeto / 陈丽华 Vera Lai-Wah Chan
    ◎主  演 梁朝伟 Tony Leung Chiu Wai
           张曼玉 Maggie Cheung
           刘嘉玲 Carina Lau
           刘青云 Sean Lau
           于小华 Siu Wah Yuk
           蓝天 Tin Lam
           徐贵樱 Kuei-Ying Hsu
           艾威 Wei Ai
           严秋华 Chau-wah Yim
           祁岩
           罗国维 Kowk Wai Law
           吴镇宇 Francis Ng
           刘丹 Tan Lau
           黄恺欣 Tomi Wong
           吴孟达 Man Tat Ng
           叶夏利 Ha-lei Yip
           罗兰 Lan Law
           苏杏璇 Hang Shuen So
           戴志伟 Chi Wai Tai
           黄造时 Jo-see Wong
           南红 Hung Nam
           冯志丰 Chi-Fung Fung
           吕方 Fong Liu
           关礼杰 Eddie Kwan
           刘兆铭 Lau Siu Ming
           许绍雄 Siu-Hung Hui

    ◎简  介

      能够成为一名对社会有用的人一直都是张志杰(梁朝伟 饰)的理想,长大成人后,充满了正义感的他选择成为了一名警察。在与女友谢颖芝(张曼玉 饰)分手后,志杰接受了林佩贤(黄造时 饰)的追求,两人走到了一起。
      倪峰(刘青云 饰)是志杰的师兄,一次意外中,由于志杰的疏忽,倪峰遭遇 了车祸身负残疾,自暴自弃的他离开了警队,淡出了众人的视线。志杰有一同父异母的兄弟名为家明(戴志卫 饰),与志杰是同行,最近,家明因被卷入一宗诈骗案之中而遭到了追杀,杀手不是别人,正是消失已久的倪峰。家明死了,凶器竟然是志杰的配枪,志杰因此亦被卷入案中。为了证明自己的清白,志杰开始了对案件的调查。

    1. General
    2. Unique ID                      : 180060949535805845290385625312251388399 (0x87767A3A5513AEEB44951B4C7B8CA1EF)
    3. Complete name                  : D:\Backup\Downloads\115download\Episode 04.mkv
    4. Format                         : Matroska
    5. Format version                 : Version 4
    6. File size                      : 1.15 GiB
    7. Duration                       : 40 min 12 s
    8. Overall bit rate               : 4 086 kb/s
    9. Frame rate                     : 25.000 FPS
    10. Encoded date                   : 2023-08-06 16:37:47 UTC
    11. Writing application            : mkvmerge v74.0.0 ('You Oughta Know') 64-bit
    12. Writing library                : libebml v1.4.4 + libmatroska v1.7.1

    13. Video
    14. ID                             : 1
    15. Format                         : HEVC
    16. Format/Info                    : High Efficiency Video Coding
    17. Format profile                 : Main@L4@Main
    18. Codec ID                       : V_MPEGH/ISO/HEVC
    19. Duration                       : 40 min 12 s
    20. Bit rate                       : 3 827 kb/s
    21. Width                          : 1 920 pixels
    22. Height                         : 1 080 pixels
    23. Display aspect ratio           : 16:9
    24. Frame rate mode                : Constant
    25. Frame rate                     : 25.000 FPS
    26. Color space                    : YUV
    27. Chroma subsampling             : 4:2:0
    28. Bit depth                      : 8 bits
    29. Bits/(Pixel*Frame)             : 0.074
    30. Stream size                    : 1.07 GiB (94%)
    31. Writing library                : VOLOHEVC
    32. Language                       : Chinese
    33. Default                        : Yes
    34. Forced                         : No

    35. Audio #1
    36. ID                             : 2
    37. Format                         : AAC LC
    38. Format/Info                    : Advanced Audio Codec Low Complexity
    39. Codec ID                       : A_AAC-2
    40. Duration                       : 40 min 12 s
    41. Bit rate                       : 128 kb/s
    42. Channel(s)                     : 2 channels
    43. Channel layout                 : L R
    44. Sampling rate                  : 48.0 kHz
    45. Frame rate                     : 46.875 FPS (1024 SPF)
    46. Compression mode               : Lossy
    47. Stream size                    : 36.8 MiB (3%)
    48. Title                          : 国语
    49. Language                       : Chinese
    50. Default                        : Yes
    51. Forced                         : No

    52. Audio #2
    53. ID                             : 3
    54. Format                         : AAC LC
    55. Format/Info                    : Advanced Audio Codec Low Complexity
    56. Codec ID                       : A_AAC-2
    57. Duration                       : 40 min 12 s
    58. Bit rate                       : 128 kb/s
    59. Channel(s)                     : 2 channels
    60. Channel layout                 : L R
    61. Sampling rate                  : 48.0 kHz
    62. Frame rate                     : 46.875 FPS (1024 SPF)
    63. Compression mode               : Lossy
    64. Stream size                    : 36.8 MiB (3%)
    65. Title                          : 粤语
    66. Language                       : Chinese
    67. Default                        : No
    68. Forced                         : No

    69. Text #1
    70. ID                             : 4
    71. Format                         : UTF-8
    72. Codec ID                       : S_TEXT/UTF8
    73. Codec ID/Info                  : UTF-8 Plain Text
    74. Duration                       : 37 min 9 s
    75. Bit rate                       : 58 b/s
    76. Frame rate                     : 0.231 FPS
    77. Count of elements              : 514
    78. Stream size                    : 15.9 KiB (0%)
    79. Title                          : 简体
    80. Language                       : Chinese
    81. Default                        : Yes
    82. Forced                         : No

    83. Text #2
    84. ID                             : 5
    85. Format                         : UTF-8
    86. Codec ID                       : S_TEXT/UTF8
    87. Codec ID/Info                  : UTF-8 Plain Text
    88. Duration                       : 37 min 9 s
    89. Bit rate                       : 58 b/s
    90. Frame rate                     : 0.231 FPS
    91. Count of elements              : 514
    92. Stream size                    : 15.9 KiB (0%)
    93. Title                          : 繁体
    94. Language                       : Chinese
    95. Default                        : No
    96. Forced                         : No

    复制代码




    购买主题 已有 2 人购买  本主题需向作者支付 388 大洋 才能浏览
    回复

    使用道具 举报

  • TA的每日心情
    开心
    15 小时前
  • 签到天数: 1033 天

    [LV.10]以坛为家III

    9

    主题

    1302

    帖子

    915

    积分

    资深影迷

    Rank: 10Rank: 10Rank: 10

    积分
    915

    土豪勋章小土豪勋章

    发表于 2024-6-14 11:57:15 | 显示全部楼层
    好多年轻的大咖
    回复

    使用道具 举报

  • TA的每日心情

    1 小时前
  • 签到天数: 772 天

    [LV.10]以坛为家III

    10

    主题

    5796

    帖子

    601

    积分

    专业影迷

    Rank: 8Rank: 8

    积分
    601
    发表于 2024-6-14 12:11:23 | 显示全部楼层
    感谢分享~~~!
    回复

    使用道具 举报

  • TA的每日心情
    开心
    3 小时前
  • 签到天数: 1198 天

    [LV.10]以坛为家III

    0

    主题

    1428

    帖子

    165

    积分

    高级影迷

    Rank: 4

    积分
    165
    发表于 2024-6-14 12:37:16 | 显示全部楼层
    感谢楼主 谢谢分享
    回复

    使用道具 举报

  • TA的每日心情
    奋斗
    2 小时前
  • 签到天数: 1098 天

    [LV.10]以坛为家III

    7

    主题

    8633

    帖子

    1569

    积分

    稀有影迷

    Rank: 12Rank: 12Rank: 12

    积分
    1569
    发表于 2024-6-14 13:18:26 | 显示全部楼层
    回复

    使用道具 举报

  • TA的每日心情

    15 小时前
  • 签到天数: 1405 天

    [LV.10]以坛为家III

    6

    主题

    9905

    帖子

    513

    积分

    专业影迷

    Rank: 8Rank: 8

    积分
    513
    发表于 2024-6-14 13:29:09 | 显示全部楼层

    感谢分享~~~!
    回复

    使用道具 举报

  • TA的每日心情
    开心
    5 小时前
  • 签到天数: 869 天

    [LV.10]以坛为家III

    0

    主题

    1673

    帖子

    355

    积分

    超级影迷

    Rank: 6Rank: 6

    积分
    355
    发表于 2024-6-14 13:45:27 | 显示全部楼层

    好多年轻的大咖
    回复

    使用道具 举报

  • TA的每日心情
    开心
    3 小时前
  • 签到天数: 107 天

    [LV.6]常住居民II

    0

    主题

    631

    帖子

    204

    积分

    高级影迷

    Rank: 4

    积分
    204
    发表于 2024-6-14 13:52:23 | 显示全部楼层
    这个真心很经典啊
    回复

    使用道具 举报

  • TA的每日心情
    开心
    昨天 19:46
  • 签到天数: 521 天

    [LV.9]以坛为家II

    0

    主题

    2675

    帖子

    696

    积分

    专业影迷

    Rank: 8Rank: 8

    积分
    696
    发表于 2024-6-14 19:02:20 | 显示全部楼层
    感谢分享资源!
    回复

    使用道具 举报

  • TA的每日心情
    开心
    4 天前
  • 签到天数: 734 天

    [LV.9]以坛为家II

    3

    主题

    1万

    帖子

    687

    积分

    专业影迷

    Rank: 8Rank: 8

    积分
    687
    发表于 2024-6-14 22:17:39 | 显示全部楼层
    感谢楼主,多谢分享好作品
    回复

    使用道具 举报

    您需要登录后才可以回帖 登录 | 立即注册

    本版积分规则

    QQ|Archiver|手机版|小黑屋|影迷乐园

    GMT+8, 2024-7-22 15:37 , Processed in 0.089948 second(s), 27 queries .

    Powered by Discuz! X3.4

    Copyright © 2001-2020, Tencent Cloud.

    快速回复 返回顶部 返回列表