请选择 进入手机版 | 继续访问电脑版

YMLY-影迷乐园-特效字幕 蓝光原盘 1080P 高清动漫电影电视剧

 找回密码
 立即注册
搜索
查看: 1341|回复: 80

[香港] [115][1998-2004][1080P][陀枪师姐系列][粤语内封简繁中字][I-IV部全][MKV][156.77G][MVTV]

  [复制链接]
  • TA的每日心情
    奋斗
    6 小时前
  • 签到天数: 1242 天

    [LV.10]以坛为家III

    240

    主题

    2892

    帖子

    8716

    积分

    影迷皇帝

    Rank: 20Rank: 20Rank: 20Rank: 20Rank: 20

    积分
    8716

    土豪勋章小土豪勋章富甲一方

    发表于 2024-6-14 11:00:32 | 显示全部楼层 |阅读模式


    ◎译  名 陀枪师姐/Armed Reaction/警花档案
    ◎片  名 陀槍師姐
    ◎年  代 1998
    ◎产  地 中国香港
    ◎类  别 剧情 / 犯罪
    ◎语  言 粤语
    ◎上映日期 1998-07-06(中国香港)
    ◎IMDb评分  8.1/10 from 41 users
    ◎IMDb链接  https://www.imdb.com/title/tt11463680/
    ◎豆瓣评分 8.6/10 from 71458 users
    ◎豆瓣链接 https://movie.douban.com/subject/2190934/
    ◎集  数 20
    ◎片  长 45分钟
    ◎导  演 邝业生 Yip-sun Kwong
    ◎编  剧 关颂玲 Sung-Ling Kuan / 林少枝 Siu Chi Lam / 黄育德 Yuk Tak Wong
    ◎主  演 关咏荷 Esther Wing Ho Kwan
           滕丽名 Joyce Tang
           欧阳震华 Bobbie Au-Yeung
           魏骏杰 Marco Ngai
           关菁 Kwan Ching
           麦子云 Tzu-Yun Mai
           黄天铎 Tin-Dok Wong
           古明华 Ming-Wah Koo
           张松枝 Deno Cheung
           李炜祺 Wai Kei Lee
           莫可欣 Hoi-Yan Mok
           黄文意 Mandy Wong
           梁雪湄 Koei Leung Suet Mei
           刘印生
           邢金沙 Jinsha  Xing
           陈安琪 Angela Chan
           丁力 Lik Ting
           朱咪咪 Mimi Chu
           邵传勇 Timothy Zao
           马海伦 Helen Ma
           楚原 Yuen Chor
           姚乐怡 Sherming Yiu
           李成昌 Shing-Cheung Lee
           马德钟 Joe Tak-Chung Ma
           张锦程 Emotion Cheung
           冯晓文 Michelle Fung
           蔡少芬 Ada Choi
           林文龙 Frankie Lam
           王俊棠 Ricky Wong Chun-Tong
           潘宁

    ◎简  介

       陈三元(滕丽名 饰)自小就受叔叔小生(欧阳震华 饰)影响,大学毕业后便当上了警察,是个陀枪女警。表现出色调到了“扫黄组”,但上司程峰(魏骏杰 饰)一直对她有性别歧视,好胜的她一直争取好表现。期间她认识了当文职的朱素娥(关咏荷 饰),人称娥姐。娥姐原本有一个幸福的家庭,后来离婚了不得不也做一个陀枪女警。
      接着娥姐也认识了小生,与小生成为了一对斗气冤家,后来竟然变成了情侣。而三元与程峰经过一段相处后互相了解了许多,成为了好朋友。令三元想不到的是自己竟然喜欢上了程峰…

    1. General
    2. Unique ID                      : 317175178158289752836008418455827917620 (0xEE9DB7A27D45CD4B27A41DD786BE2B34)
    3. Complete name                  : D:\Backup\Downloads\115download\Episode 01.mkv
    4. Format                         : Matroska
    5. Format version                 : Version 4
    6. File size                      : 1.28 GiB
    7. Duration                       : 45 min 27 s
    8. Overall bit rate               : 4 041 kb/s
    9. Frame rate                     : 25.000 FPS
    10. Encoded date                   : 2023-12-13 22:56:46 UTC
    11. Writing application            : mkvmerge v80.0 ('Roundabout') 64-bit
    12. Writing library                : libebml v1.4.4 + libmatroska v1.7.1

    13. Video
    14. ID                             : 1
    15. Format                         : HEVC
    16. Format/Info                    : High Efficiency Video Coding
    17. Format profile                 : Main@L4@Main
    18. Codec ID                       : V_MPEGH/ISO/HEVC
    19. Duration                       : 45 min 26 s
    20. Bit rate                       : 3 781 kb/s
    21. Width                          : 1 920 pixels
    22. Height                         : 1 080 pixels
    23. Display aspect ratio           : 16:9
    24. Frame rate mode                : Constant
    25. Frame rate                     : 25.000 FPS
    26. Color space                    : YUV
    27. Chroma subsampling             : 4:2:0
    28. Bit depth                      : 8 bits
    29. Bits/(Pixel*Frame)             : 0.073
    30. Stream size                    : 1.20 GiB (94%)
    31. Writing library                : VOLOHEVC
    32. Language                       : Chinese
    33. Default                        : Yes
    34. Forced                         : No

    35. Audio #1
    36. ID                             : 2
    37. Format                         : AAC LC
    38. Format/Info                    : Advanced Audio Codec Low Complexity
    39. Codec ID                       : A_AAC-2
    40. Duration                       : 45 min 26 s
    41. Bit rate                       : 128 kb/s
    42. Channel(s)                     : 2 channels
    43. Channel layout                 : L R
    44. Sampling rate                  : 44.1 kHz
    45. Frame rate                     : 43.066 FPS (1024 SPF)
    46. Compression mode               : Lossy
    47. Stream size                    : 41.7 MiB (3%)
    48. Title                          : 国语
    49. Language                       : Chinese
    50. Default                        : Yes
    51. Forced                         : No

    52. Audio #2
    53. ID                             : 3
    54. Format                         : AAC LC
    55. Format/Info                    : Advanced Audio Codec Low Complexity
    56. Codec ID                       : A_AAC-2
    57. Duration                       : 45 min 27 s
    58. Bit rate                       : 128 kb/s
    59. Channel(s)                     : 2 channels
    60. Channel layout                 : L R
    61. Sampling rate                  : 48.0 kHz
    62. Frame rate                     : 46.875 FPS (1024 SPF)
    63. Compression mode               : Lossy
    64. Stream size                    : 41.6 MiB (3%)
    65. Title                          : 粤语
    66. Language                       : Chinese
    67. Default                        : No
    68. Forced                         : No

    69. Text #1
    70. ID                             : 4
    71. Format                         : UTF-8
    72. Codec ID                       : S_TEXT/UTF8
    73. Codec ID/Info                  : UTF-8 Plain Text
    74. Duration                       : 42 min 25 s
    75. Bit rate                       : 77 b/s
    76. Frame rate                     : 0.345 FPS
    77. Count of elements              : 878
    78. Stream size                    : 24.1 KiB (0%)
    79. Title                          : 简体
    80. Language                       : Chinese
    81. Default                        : Yes
    82. Forced                         : No

    83. Text #2
    84. ID                             : 5
    85. Format                         : UTF-8
    86. Codec ID                       : S_TEXT/UTF8
    87. Codec ID/Info                  : UTF-8 Plain Text
    88. Duration                       : 42 min 25 s
    89. Bit rate                       : 77 b/s
    90. Frame rate                     : 0.345 FPS
    91. Count of elements              : 878
    92. Stream size                    : 24.1 KiB (0%)
    93. Title                          : 繁体
    94. Language                       : Chinese
    95. Default                        : No
    96. Forced                         : No

    复制代码




    购买主题 已有 2 人购买  本主题需向作者支付 500 大洋 才能浏览
    回复

    使用道具 举报

  • TA的每日心情

    半小时前
  • 签到天数: 772 天

    [LV.10]以坛为家III

    10

    主题

    5796

    帖子

    601

    积分

    专业影迷

    Rank: 8Rank: 8

    积分
    601
    发表于 2024-6-14 12:11:03 | 显示全部楼层
    感谢分享~~~!
    回复

    使用道具 举报

  • TA的每日心情
    奋斗
    2 小时前
  • 签到天数: 1098 天

    [LV.10]以坛为家III

    7

    主题

    8633

    帖子

    1569

    积分

    稀有影迷

    Rank: 12Rank: 12Rank: 12

    积分
    1569
    发表于 2024-6-14 13:17:27 | 显示全部楼层
    回复

    使用道具 举报

  • TA的每日心情

    14 小时前
  • 签到天数: 1405 天

    [LV.10]以坛为家III

    6

    主题

    9905

    帖子

    513

    积分

    专业影迷

    Rank: 8Rank: 8

    积分
    513
    发表于 2024-6-14 13:28:42 | 显示全部楼层

    感谢分享~~~!

    点评

    多谢大佬分享  详情 回复 发表于 2024-6-19 11:43
    回复

    使用道具 举报

  • TA的每日心情
    开心
    4 小时前
  • 签到天数: 869 天

    [LV.10]以坛为家III

    0

    主题

    1673

    帖子

    355

    积分

    超级影迷

    Rank: 6Rank: 6

    积分
    355
    发表于 2024-6-14 13:37:19 | 显示全部楼层

    感谢分享~~~!
    回复

    使用道具 举报

  • TA的每日心情
    开心
    4 小时前
  • 签到天数: 869 天

    [LV.10]以坛为家III

    0

    主题

    1673

    帖子

    355

    积分

    超级影迷

    Rank: 6Rank: 6

    积分
    355
    发表于 2024-6-14 13:45:47 | 显示全部楼层
    感谢分享~~~!

    点评

    谢谢分享好资源  详情 回复 发表于 昨天 21:14
    回复

    使用道具 举报

  • TA的每日心情
    擦汗
    7 小时前
  • 签到天数: 256 天

    [LV.8]以坛为家I

    8

    主题

    825

    帖子

    74

    积分

    中级影迷

    Rank: 3Rank: 3

    积分
    74
    发表于 2024-6-14 13:48:25 | 显示全部楼层
    谢谢分享好资源

    点评

    谢谢分享好资源  详情 回复 发表于 2024-6-15 10:00
    回复

    使用道具 举报

  • TA的每日心情
    开心
    2 小时前
  • 签到天数: 107 天

    [LV.6]常住居民II

    0

    主题

    631

    帖子

    204

    积分

    高级影迷

    Rank: 4

    积分
    204
    发表于 2024-6-14 13:51:57 | 显示全部楼层
    看看经典港剧

    点评

    谢谢分享好资源  详情 回复 发表于 2024-6-28 15:19
    感谢分享资源!  详情 回复 发表于 2024-6-25 14:57
    回复

    使用道具 举报

  • TA的每日心情
    开心
    前天 10:56
  • 签到天数: 40 天

    [LV.5]常住居民I

    0

    主题

    87

    帖子

    66

    积分

    初级影迷

    Rank: 2

    积分
    66
    发表于 2024-6-14 15:22:30 | 显示全部楼层
    谢谢分享好资源

    点评

    谢谢楼主分享  详情 回复 发表于 前天 14:04
    谢谢楼主分享  详情 回复 发表于 2024-7-2 11:11
    回复

    使用道具 举报

  • TA的每日心情
    开心
    4 天前
  • 签到天数: 734 天

    [LV.9]以坛为家II

    3

    主题

    1万

    帖子

    687

    积分

    专业影迷

    Rank: 8Rank: 8

    积分
    687
    发表于 2024-6-14 22:16:15 | 显示全部楼层
    感谢楼主,多谢分享好作品

    点评

    谢谢分享好资源  详情 回复 发表于 28 分钟前
    谢谢分享好资源  详情 回复 发表于 2024-7-1 14:19
    回复

    使用道具 举报

    您需要登录后才可以回帖 登录 | 立即注册

    本版积分规则

    QQ|Archiver|手机版|小黑屋|影迷乐园

    GMT+8, 2024-7-22 15:10 , Processed in 0.102822 second(s), 28 queries .

    Powered by Discuz! X3.4

    Copyright © 2001-2020, Tencent Cloud.

    快速回复 返回顶部 返回列表