请选择 进入手机版 | 继续访问电脑版

YMLY-影迷乐园-特效字幕 蓝光原盘 1080P 高清动漫电影电视剧

 找回密码
 立即注册
搜索
查看: 187|回复: 0

[香港] [百度][1984][DVD9~6][霍东阁][国粤双语中字][钱小豪.徐小明][ISO][43.73GB]

[复制链接]
  • TA的每日心情
    奋斗
    2020-3-1 21:46
  • 签到天数: 446 天

    [LV.9]以坛为家II

    2702

    主题

    3220

    帖子

    9535

    积分

    影迷皇帝

    Rank: 20Rank: 20Rank: 20Rank: 20Rank: 20

    积分
    9535

    贵族勋章土豪勋章小土豪勋章主题达人百分百好孩子内测勋章最佳新人影迷女神十二生肖之猪水瓶座勋章富甲一方

    发表于 2019-4-3 11:57:06 | 显示全部楼层 |阅读模式


    ◎片  名 霍东阁
    ◎年  代 1984
    ◎产  地 香港
    ◎类  别 剧情 / 动作 / 传记 / 历史
    ◎语  言 粤语 / 国语
    ◎上映日期 1984
    ◎豆瓣评分 6.8/10 from 427 users
    ◎豆瓣链接 https://movie.douban.com/subject/2212590/
    ◎集  数 30
    ◎片  长 40分钟
    ◎导  演 徐小明 Siu Ming Tsui
    ◎编  剧 陈静仪 Ching-yee Chan
    ◎主  演 钱小豪 Siu-hou Chin
          徐小明 Siu Ming Tsui
          高雄 Eddy Ko
          郑佩佩 Pei-pei Cheng
          曾伟权 Wei-kuan Tsang
          麦翠娴 Tsui-Han Mak
          刘志荣 Chi-Wing Lau


    ◎标  签 电视剧 | 香港 | 港剧 | 动作 | TVB | 钱小豪 | 童年回忆 | 武侠

    ◎简  介  

      故事发生在民国初年,霍东阁(钱小豪 饰)是霍元甲的儿子,日寇侵袭,精武门的势力渐渐衰弱,霍东阁为了自保,偃旗息鼓,在码头从事着搬运工的工作。日渐紧张的时局让满腔爱国热血的陈公哲(刘志荣 饰)、卢雨亭(曾伟权 饰)等人十分焦急,他们找到了霍东阁,希望他能够重振精武门,涨一涨我方士气。与此同时,他们还传授给了霍东阁了得的武功,使得后者在武学方面获得了突飞猛进的长进。
    尽管母亲强烈反对霍东阁重振精武门的举动,但强烈的责任感还是驱使着霍东阁走上了这一条危机四伏的道路。他所要面对的,除了张牙舞爪的日寇外,还有贪婪狡猾的土豪劣绅,面对重重的阻碍,霍东阁和精武门的未来会是怎样一副光景呢?
    1. General
    2. Format                         : MPEG-PS
    3. File size                      : 1 024 MiB
    4. Duration                       : 31 min 53 s
    5. Overall bit rate mode          : Variable
    6. Overall bit rate               : 4 487 kb/s

    7. Video
    8. ID                             : 224 (0xE0)
    9. Format                         : MPEG Video
    10. Format version                 : Version 2
    11. Format profile                 : Main@Main
    12. Format settings, BVOP          : Yes
    13. Format settings, Matrix        : Custom
    14. Format settings, GOP           : Variable
    15. Format settings, picture struc : Frame
    16. Duration                       : 31 min 53 s
    17. Bit rate mode                  : Variable
    18. Bit rate                       : 3 982 kb/s
    19. Maximum bit rate               : 8 000 kb/s
    20. Width                          : 720 pixels
    21. Height                         : 576 pixels
    22. Display aspect ratio           : 4:3
    23. Frame rate                     : 25.000 FPS
    24. Standard                       : PAL
    25. Color space                    : YUV
    26. Chroma subsampling             : 4:2:0
    27. Bit depth                      : 8 bits
    28. Scan type                      : Interlaced
    29. Scan order                     : Top Field First
    30. Compression mode               : Lossy
    31. Bits/(Pixel*Frame)             : 0.384
    32. Time code of first frame       : 00:00:00:00
    33. Time code source               : Group of pictures header
    34. GOP, Open/Closed               : Closed
    35. Stream size                    : 909 MiB (89%)
    36. Color primaries                : BT.601 PAL
    37. Transfer characteristics       : BT.470 System B, BT.470 System G
    38. Matrix coefficients            : BT.601

    39. Audio #1
    40. ID                             : 189 (0xBD)-128 (0x80)
    41. Format                         : AC-3
    42. Format/Info                    : Audio Coding 3
    43. Format settings, Endianness    : Big
    44. Muxing mode                    : DVD-Video
    45. Duration                       : 31 min 53 s
    46. Bit rate mode                  : Constant
    47. Bit rate                       : 224 kb/s
    48. Channel(s)                     : 6 channels
    49. Channel positions              : Front: L C R, Side: L R, LFE
    50. Sampling rate                  : 48.0 kHz
    51. Frame rate                     : 31.250 FPS (1536 spf)
    52. Bit depth                      : 16 bits
    53. Compression mode               : Lossy
    54. Stream size                    : 51.1 MiB (5%)
    55. Service kind                   : Complete Main

    56. Audio #2
    57. ID                             : 189 (0xBD)-129 (0x81)
    58. Format                         : AC-3
    59. Format/Info                    : Audio Coding 3
    60. Format settings, Endianness    : Big
    61. Muxing mode                    : DVD-Video
    62. Duration                       : 31 min 53 s
    63. Bit rate mode                  : Constant
    64. Bit rate                       : 192 kb/s
    65. Channel(s)                     : 2 channels
    66. Channel positions              : Front: L R
    67. Sampling rate                  : 48.0 kHz
    68. Frame rate                     : 31.250 FPS (1536 spf)
    69. Bit depth                      : 16 bits
    70. Compression mode               : Lossy
    71. Stream size                    : 43.8 MiB (4%)
    72. Service kind                   : Complete Main

    73. Menu
    复制代码



    购买主题 本主题需向作者支付 50 大洋 才能浏览
    回复

    使用道具 举报

    您需要登录后才可以回帖 登录 | 立即注册

    本版积分规则

    QQ|Archiver|手机版|小黑屋|影迷乐园  

    GMT+8, 2020-4-4 05:03 , Processed in 0.119060 second(s), 30 queries .

    Powered by Discuz! X3.3

    © 2001-2017 Comsenz Inc.

    快速回复 返回顶部 返回列表