请选择 进入手机版 | 继续访问电脑版

YMLY-影迷乐园-特效字幕 蓝光原盘 1080P 高清动漫电影电视剧

 找回密码
 立即注册
搜索
查看: 734|回复: 3

[香港] [百度][2001][DVD9~6][方谬神探][国粤双语无字][张卫健.袁咏仪][ISO][46.43GB]

[复制链接]
  • TA的每日心情
    奋斗
    2020-3-1 21:46
  • 签到天数: 446 天

    [LV.9]以坛为家II

    2702

    主题

    3220

    帖子

    9533

    积分

    影迷皇帝

    Rank: 20Rank: 20Rank: 20Rank: 20Rank: 20

    积分
    9533

    贵族勋章土豪勋章小土豪勋章主题达人百分百好孩子内测勋章最佳新人影迷女神十二生肖之猪水瓶座勋章富甲一方

    发表于 2019-4-3 11:58:49 | 显示全部楼层 |阅读模式


    ◎译  名 神探方天谬
    ◎片  名 方谬神探
    ◎年  代 2002
    ◎产  地 香港
    ◎类  别 喜剧 / 爱情 / 悬疑
    ◎语  言 粤语
    ◎上映日期 2002-03-27(中国大陆)
    ◎豆瓣评分 7.3/10 from 10959 users
    ◎豆瓣链接 https://movie.douban.com/subject/2299706/
    ◎集  数 30
    ◎片  长 40分钟
    ◎导  演 温伟基 / 李慧珠 Huizhu Li / 谭友业 Yau Yip Tam
    ◎编  剧 苗申
    ◎主  演 张卫健 Dicky Cheung
          袁咏仪 Anita Yuen
          胡静 Jing Hu
          张茜 Jess Zhang


    ◎标  签 张卫健 | 电视剧 | 港剧 | TVB | 推理 | 袁咏仪 | 香港 | 看过的电视剧

    ◎简  介  

      《方谬神探》是刘德华投资拍摄的第一部电视剧。
    十三娘(潘洁 饰)本是女山贼,金盆洗手肩负起家族重担后,发挥了其精明的生意头脑,把家业打理得有声有色,可是,方家独子方天谬(张卫健 饰)却是十三娘的一生遗憾,年方二十八的天谬虽事母至孝,却天生鲁钝,智商不高,但又秉承了其父的性 格,天谬有一指腹为婚的未过门妻子——总巡捕游大胜的独生女游小情(袁咏仪 饰)。机灵刁钻的小情自小看不顺眼天谬的行事为人,故经常找寻办法要推翻婚事,更和天谬不停斗法,终于,小情开出盘口,假如天谬能当上一等巡捕,便答应下嫁,为报心头恨的天谬遂毅然投考巡捕。但是,奇奇怪怪的事情随即发生了,只要天谬发烧,就会变成了另一个聪明过人的天谬......
    1. General
    2. Format                         : MPEG-PS
    3. File size                      : 1 024 MiB
    4. Duration                       : 29 min 7 s
    5. Overall bit rate mode          : Variable
    6. Overall bit rate               : 4 914 kb/s

    7. Video
    8. ID                             : 224 (0xE0)
    9. Format                         : MPEG Video
    10. Format version                 : Version 2
    11. Format profile                 : Main@Main
    12. Format settings, BVOP          : Yes
    13. Format settings, Matrix        : Custom
    14. Format settings, GOP           : M=2, N=16
    15. Format settings, picture struc : Frame
    16. Duration                       : 29 min 7 s
    17. Bit rate mode                  : Variable
    18. Bit rate                       : 4 048 kb/s
    19. Maximum bit rate               : 4 100 kb/s
    20. Width                          : 720 pixels
    21. Height                         : 480 pixels
    22. Display aspect ratio           : 4:3
    23. Frame rate                     : 29.970 (30000/1001) FPS
    24. Standard                       : NTSC
    25. Color space                    : YUV
    26. Chroma subsampling             : 4:2:0
    27. Bit depth                      : 8 bits
    28. Scan type                      : Interlaced
    29. Scan order                     : Top Field First
    30. Compression mode               : Lossy
    31. Bits/(Pixel*Frame)             : 0.391
    32. Time code of first frame       : 00:02:02:10
    33. Time code source               : Group of pictures header
    34. GOP, Open/Closed               : Open
    35. GOP, Open/Closed of first fram : Closed
    36. Stream size                    : 844 MiB (82%)

    37. Audio #1
    38. ID                             : 189 (0xBD)-128 (0x80)
    39. Format                         : AC-3
    40. Format/Info                    : Audio Coding 3
    41. Format settings, Endianness    : Big
    42. Muxing mode                    : DVD-Video
    43. Duration                       : 29 min 7 s
    44. Bit rate mode                  : Constant
    45. Bit rate                       : 384 kb/s
    46. Channel(s)                     : 6 channels
    47. Channel positions              : Front: L C R, Side: L R, LFE
    48. Sampling rate                  : 48.0 kHz
    49. Frame rate                     : 31.250 FPS (1536 spf)
    50. Bit depth                      : 16 bits
    51. Compression mode               : Lossy
    52. Stream size                    : 80.0 MiB (8%)
    53. Service kind                   : Complete Main

    54. Audio #2
    55. ID                             : 189 (0xBD)-129 (0x81)
    56. Format                         : AC-3
    57. Format/Info                    : Audio Coding 3
    58. Format settings, Endianness    : Big
    59. Muxing mode                    : DVD-Video
    60. Duration                       : 29 min 7 s
    61. Bit rate mode                  : Constant
    62. Bit rate                       : 384 kb/s
    63. Channel(s)                     : 6 channels
    64. Channel positions              : Front: L C R, Side: L R, LFE
    65. Sampling rate                  : 48.0 kHz
    66. Frame rate                     : 31.250 FPS (1536 spf)
    67. Bit depth                      : 16 bits
    68. Compression mode               : Lossy
    69. Stream size                    : 80.0 MiB (8%)
    70. Service kind                   : Complete Main

    71. Menu
    复制代码



    购买主题 已有 2 人购买  本主题需向作者支付 30 大洋 才能浏览
    回复

    使用道具 举报

  • TA的每日心情
    奋斗
    昨天 20:59
  • 签到天数: 172 天

    [LV.7]常住居民III

    1

    主题

    227

    帖子

    30

    积分

    初级影迷

    Rank: 2

    积分
    30
    发表于 2019-4-3 20:06:29 | 显示全部楼层
    说实话,我是张卫健的影迷
    回复

    使用道具 举报

    该用户从未签到

    0

    主题

    14

    帖子

    13

    积分

    入门影迷

    Rank: 1

    积分
    13
    发表于 2020-1-30 19:50:32 | 显示全部楼层
    [香港] [百度][2001][DVD9~6][方谬神探][国粤双语无字][张卫健.袁咏仪][ISO][46.43GB]
    回复

    使用道具 举报

  • TA的每日心情

    昨天 16:54
  • 签到天数: 70 天

    [LV.6]常住居民II

    3

    主题

    383

    帖子

    131

    积分

    中级影迷

    Rank: 3Rank: 3

    积分
    131
    发表于 昨天 17:24 | 显示全部楼层
    回复

    使用道具 举报

    您需要登录后才可以回帖 登录 | 立即注册

    本版积分规则

    QQ|Archiver|手机版|小黑屋|影迷乐园  

    GMT+8, 2020-4-4 03:29 , Processed in 0.148754 second(s), 30 queries .

    Powered by Discuz! X3.3

    © 2001-2017 Comsenz Inc.

    快速回复 返回顶部 返回列表