请选择 进入手机版 | 继续访问电脑版

YMLY-影迷乐园-特效字幕 蓝光原盘 1080P 高清动漫电影电视剧

 找回密码
 立即注册
搜索
查看: 124|回复: 0

[国产] [百度][2005][DVD5~10][大明奇才][国语中字][毛乐.舒畅][ISO][39.84GB]

[复制链接]
  • TA的每日心情
    奋斗
    2020-3-1 21:46
  • 签到天数: 446 天

    [LV.9]以坛为家II

    2702

    主题

    3220

    帖子

    9533

    积分

    影迷皇帝

    Rank: 20Rank: 20Rank: 20Rank: 20Rank: 20

    积分
    9533

    贵族勋章土豪勋章小土豪勋章主题达人百分百好孩子内测勋章最佳新人影迷女神十二生肖之猪水瓶座勋章富甲一方

    发表于 2019-4-3 11:54:44 | 显示全部楼层 |阅读模式


    ◎片  名 大明奇才
    ◎年  代 2005
    ◎产  地 中国大陆
    ◎类  别 剧情
    ◎语  言 汉语普通话
    ◎上映日期 2005-10-02(中国大陆)
    ◎豆瓣评分 6.2/10 from 102 users
    ◎豆瓣链接 https://movie.douban.com/subject/3093223/
    ◎集  数 30
    ◎片  长 46分钟
    ◎导  演 龚艺群 Yiqun Gong
    ◎编  剧 刘建
    ◎主  演 毛乐 Mao Le
          舒畅 Chang Shu
          高兰村 Lancun Gao


    ◎标  签 电视剧 | 古装 | 国产电视剧 | 舒畅 | 中国 | 毛乐 | 政治题材 | 大陆

    ◎简  介  

      大型历史正剧展现旷世奇才传奇人生!主撰修《永乐大典》流芳百世!
    大明奇才解缙自小天资聪颖,勤学好问,颖敏绝伦。5岁便能吟诗作对,有金榜神童之美誉。 当朝尚书曹萱以权谋私,买通乡试考官司,舞弊考场。解缙当众辩卷得胜,被补录为乡试新科解元,载誉归乡。十九岁时又以其超人的才华和胆识考中进士。
    当朝皇帝朱元璋对解缙所书《大庖西封事》倍加赞赏,并将原本只给皇帝一人阅读的封事公之于众,解缙因此名声大噪,官升吏部都察院御史大夫;解缙却也因此招来奸臣曹萱的更加不满。朱元璋驾崩!曹萱将解缙所撰的祭文调包成一张白纸!新皇大怒,要将解缙斩首祭灵,满腹经纶的解缙却出口成章。曹萱又利用贵妃娘娘,将解缙贬为陕西河州卫知事。解缙历经周折,到翰林院任职。朱棣登基,重组内阁,解缙擢升为翰林院学士兼右春坊大学士,并委任《永乐大典》主撰修之职。解缙率3千多文人墨客,历时4年,完成中国乃至世界第一部浩瀚的大百科全书《永乐大典》,令朱棣龙颜大悦,发出“才子!可谓夺天手段也”的浩叹,解缙籍此留下大明奇才的美名!
    1. General
    2. Format                         : MPEG-PS
    3. File size                      : 1 024 MiB
    4. Duration                       : 35 min 3 s
    5. Overall bit rate mode          : Variable
    6. Overall bit rate               : 4 083 kb/s

    7. Video
    8. ID                             : 224 (0xE0)
    9. Format                         : MPEG Video
    10. Format version                 : Version 2
    11. Format profile                 : Main@Main
    12. Format settings, BVOP          : Yes
    13. Format settings, Matrix        : Custom
    14. Format settings, GOP           : M=3, N=12
    15. Format settings, picture struc : Frame
    16. Duration                       : 35 min 3 s
    17. Bit rate mode                  : Variable
    18. Bit rate                       : 3 617 kb/s
    19. Maximum bit rate               : 8 500 kb/s
    20. Width                          : 720 pixels
    21. Height                         : 576 pixels
    22. Display aspect ratio           : 4:3
    23. Frame rate                     : 25.000 FPS
    24. Standard                       : PAL
    25. Color space                    : YUV
    26. Chroma subsampling             : 4:2:0
    27. Bit depth                      : 8 bits
    28. Scan type                      : Interlaced
    29. Scan order                     : Top Field First
    30. Compression mode               : Lossy
    31. Bits/(Pixel*Frame)             : 0.349
    32. Time code of first frame       : 00:00:00:00
    33. Time code source               : Group of pictures header
    34. GOP, Open/Closed               : Closed
    35. Stream size                    : 907 MiB (89%)

    36. Audio
    37. ID                             : 189 (0xBD)-128 (0x80)
    38. Format                         : AC-3
    39. Format/Info                    : Audio Coding 3
    40. Format settings, Endianness    : Big
    41. Muxing mode                    : DVD-Video
    42. Duration                       : 35 min 3 s
    43. Bit rate mode                  : Constant
    44. Bit rate                       : 384 kb/s
    45. Channel(s)                     : 6 channels
    46. Channel positions              : Front: L C R, Side: L R, LFE
    47. Sampling rate                  : 48.0 kHz
    48. Frame rate                     : 31.250 FPS (1536 spf)
    49. Bit depth                      : 16 bits
    50. Compression mode               : Lossy
    51. Stream size                    : 96.3 MiB (9%)
    52. Service kind                   : Complete Main

    53. Menu
    复制代码



    购买主题 本主题需向作者支付 30 大洋 才能浏览
    回复

    使用道具 举报

    您需要登录后才可以回帖 登录 | 立即注册

    本版积分规则

    QQ|Archiver|手机版|小黑屋|影迷乐园  

    GMT+8, 2020-4-4 03:59 , Processed in 0.123867 second(s), 30 queries .

    Powered by Discuz! X3.3

    © 2001-2017 Comsenz Inc.

    快速回复 返回顶部 返回列表