请选择 进入手机版 | 继续访问电脑版

YMLY-影迷乐园-特效字幕 蓝光原盘 1080P 高清动漫电影电视剧

 找回密码
 立即注册
搜索
查看: 282|回复: 8

[国产] [百度][2007][DVD5~16][大明王朝1566][国语日字][陈宝国.黄志忠][ISO][84.55GB]

[复制链接]
  • TA的每日心情
    奋斗
    2020-3-1 21:46
  • 签到天数: 446 天

    [LV.9]以坛为家II

    2702

    主题

    3220

    帖子

    9533

    积分

    影迷皇帝

    Rank: 20Rank: 20Rank: 20Rank: 20Rank: 20

    积分
    9533

    贵族勋章土豪勋章小土豪勋章主题达人百分百好孩子内测勋章最佳新人影迷女神十二生肖之猪水瓶座勋章富甲一方

    发表于 2019-4-3 11:50:48 | 显示全部楼层 |阅读模式


    ◎译  名 嘉靖与海瑞 / 大明王朝1566:嘉靖与海瑞
    ◎片  名 大明王朝1566
    ◎年  代 2007
    ◎产  地 中国大陆
    ◎类  别 剧情 / 历史
    ◎语  言 汉语普通话
    ◎上映日期 2007-01-08(中国大陆) / 2017-02-13(中国大陆重播)
    ◎IMDb评分 9.3/10 from 84 users
    ◎IMDb链接 http://www.imdb.com/title/tt6424870
    ◎豆瓣评分 9.7/10 from 64859 users
    ◎豆瓣链接 https://movie.douban.com/subject/2210001/
    ◎集  数 46
    ◎片  长 42分钟
    ◎导  演 张黎 Li Zhang
    ◎编  剧 刘和平 Heping Liu
    ◎主  演 陈宝国 Baoguo Chen
          黄志忠 Zhi-zhong Huang
          倪大红 Dahong Ni
          王庆祥 Qingxiang Wang
          郭东文 Dongwen Guo
          郑玉 Yu Zheng
          张子健 Zijian Zhang
          闫妮 Ni Yan
          王雅捷 Yajie Wang
          祝希娟 Xijuan Zhu
          王劲松 Jinsong Wang
          赵立新 Lixin Zhao
          徐敏 Min Xu
          郭广平 Guangping Guo
          谭凯 Kai Tan
          肖竹 Zhu Xiao
          甘雨 Yu Gan
          张志坚 Zhijian Zhang
          刘毓滨 Yunbin Liu
          晋松 Song Jin
          徐光明 Guangming Xu
          刘立伟 Liwei Liu
          赵雍 Yong Zhao
          徐成峰 Chengfeng Xu
          王宇 Yu Wang
          陈之辉 Zhi-hui Chen
          杨涵斌 Hanbin Yang
          王戎 Rong Wang
          马小宁 Xiaoning Ma
          胡灵灵 Lingling Hu
          林海韵 Haiyun Lin
          三浦研一 Kenichi Miura
          穆泓屹 Hongyi Mu
          李婧 Jing Li
          浅野长英 Asano Nagahide


    ◎标  签 历史 | 国产电视剧 | 大明王朝 | 权谋 | 明朝 | 经典 | 电视剧 | 张黎

    ◎简  介  

      本剧讲述的是嘉靖与海瑞的故事。嘉靖三十九年,贪墨横行、民不聊生。奸臣严嵩(倪大红 饰)党羽密布、权倾朝野,清官海瑞(黄志忠 饰)不惧强权,敢于向腐朽封建的皇权发起挑战。皇帝朱厚熜(陈宝国 饰)练道修玄二十载,始终把控着大明朝的军政、经济大权。当时的中国经济发达,市井文化也算繁荣,但社会各阶层矛盾突出,国家大面积实施的土地兼并使千百万农民一夜之间失去了赖以生存的土地。严嵩的专权引起了地方各级官员的不满,“倒严”之声甚嚣尘上,从上至下、从里到外,从朝廷到地方官府,到处充斥着尔虞我诈、勾心斗角的血雨腥风。忠臣良将与乱臣贼子纷纷登上了当时的历史舞台......
    1. General
    2. Format                         : MPEG-PS
    3. File size                      : 1 024 MiB
    4. Duration                       : 24 min 0 s
    5. Overall bit rate mode          : Variable
    6. Overall bit rate               : 5 962 kb/s

    7. Video
    8. ID                             : 224 (0xE0)
    9. Format                         : MPEG Video
    10. Format version                 : Version 2
    11. Format profile                 : Main@Main
    12. Format settings, BVOP          : Yes
    13. Format settings, Matrix        : Custom
    14. Format settings, GOP           : Variable
    15. Format settings, picture struc : Frame
    16. Duration                       : 24 min 0 s
    17. Bit rate mode                  : Variable
    18. Bit rate                       : 5 651 kb/s
    19. Maximum bit rate               : 9 800 kb/s
    20. Width                          : 720 pixels
    21. Height                         : 480 pixels
    22. Display aspect ratio           : 4:3
    23. Frame rate                     : 29.970 (30000/1001) FPS
    24. Standard                       : NTSC
    25. Color space                    : YUV
    26. Chroma subsampling             : 4:2:0
    27. Bit depth                      : 8 bits
    28. Scan type                      : Interlaced
    29. Scan order                     : Top Field First
    30. Compression mode               : Lossy
    31. Bits/(Pixel*Frame)             : 0.546
    32. Time code of first frame       : 01:00:59:00
    33. Time code source               : Group of pictures header
    34. Stream size                    : 971 MiB (95%)

    35. Audio
    36. ID                             : 189 (0xBD)-128 (0x80)
    37. Format                         : AC-3
    38. Format/Info                    : Audio Coding 3
    39. Format settings, Endianness    : Big
    40. Muxing mode                    : DVD-Video
    41. Duration                       : 24 min 0 s
    42. Bit rate mode                  : Constant
    43. Bit rate                       : 192 kb/s
    44. Channel(s)                     : 2 channels
    45. Channel positions              : Front: L R
    46. Sampling rate                  : 48.0 kHz
    47. Frame rate                     : 31.250 FPS (1536 spf)
    48. Bit depth                      : 16 bits
    49. Compression mode               : Lossy
    50. Stream size                    : 33.0 MiB (3%)
    51. Service kind                   : Complete Main

    52. Text #1
    53. ID                             : 189 (0xBD)-32 (0x20)
    54. Format                         : RLE
    55. Format/Info                    : Run-length encoding
    56. Muxing mode                    : DVD-Video
    57. Duration                       : 23 min 57 s

    58. Text #2
    59. ID                             : 189 (0xBD)-33 (0x21)
    60. Format                         : RLE
    61. Format/Info                    : Run-length encoding
    62. Muxing mode                    : DVD-Video
    63. Duration                       : 23 min 57 s

    64. Menu
    复制代码



    购买主题 已有 7 人购买  本主题需向作者支付 50 大洋 才能浏览
    回复

    使用道具 举报

  • TA的每日心情

    2019-6-24 08:26
  • 签到天数: 1 天

    [LV.1]初来乍到

    0

    主题

    447

    帖子

    66

    积分

    初级影迷

    Rank: 2

    积分
    66
    发表于 2019-9-1 21:40:13 | 显示全部楼层
    谢谢分享,收藏
    回复

    使用道具 举报

    该用户从未签到

    0

    主题

    2

    帖子

    22

    积分

    入门影迷

    Rank: 1

    积分
    22
    发表于 2019-9-13 21:06:43 | 显示全部楼层
    感谢~购买了~
    回复

    使用道具 举报

  • TA的每日心情
    开心
    2020-3-23 21:55
  • 签到天数: 38 天

    [LV.5]常住居民I

    0

    主题

    195

    帖子

    55

    积分

    初级影迷

    Rank: 2

    积分
    55
    发表于 2019-11-19 23:53:17 | 显示全部楼层
    不知道资源还有没有效
    回复

    使用道具 举报

  • TA的每日心情
    开心
    2020-3-1 12:35
  • 签到天数: 3 天

    [LV.2]偶尔看看I

    0

    主题

    406

    帖子

    41

    积分

    初级影迷

    Rank: 2

    积分
    41
    发表于 2019-12-31 19:30:52 | 显示全部楼层
    谢谢,我老喜欢。
    回复

    使用道具 举报

  • TA的每日心情
    开心
    2020-1-25 20:13
  • 签到天数: 59 天

    [LV.5]常住居民I

    0

    主题

    182

    帖子

    11

    积分

    入门影迷

    Rank: 1

    积分
    11
    发表于 2020-1-4 08:24:32 | 显示全部楼层
    中国最好的剧之一
    回复

    使用道具 举报

  • TA的每日心情
    开心
    2019-9-19 12:51
  • 签到天数: 2 天

    [LV.1]初来乍到

    0

    主题

    10

    帖子

    26

    积分

    初级影迷

    Rank: 2

    积分
    26
    发表于 2020-1-7 10:30:39 | 显示全部楼层
    找了很久的资源,非常感谢
    回复

    使用道具 举报

    该用户从未签到

    0

    主题

    6

    帖子

    24

    积分

    入门影迷

    Rank: 1

    积分
    24
    发表于 2020-3-2 19:17:01 | 显示全部楼层
    好贵,看看清晰度怎么样
    回复

    使用道具 举报

  • TA的每日心情
    开心
    2020-3-10 03:14
  • 签到天数: 1 天

    [LV.1]初来乍到

    0

    主题

    19

    帖子

    19

    积分

    入门影迷

    Rank: 1

    积分
    19
    发表于 2020-3-14 21:05:00 | 显示全部楼层
    谢谢楼主分享
    回复

    使用道具 举报

    您需要登录后才可以回帖 登录 | 立即注册

    本版积分规则

    QQ|Archiver|手机版|小黑屋|影迷乐园  

    GMT+8, 2020-4-4 03:40 , Processed in 0.147317 second(s), 30 queries .

    Powered by Discuz! X3.3

    © 2001-2017 Comsenz Inc.

    快速回复 返回顶部 返回列表