请选择 进入手机版 | 继续访问电脑版

YMLY-影迷乐园-特效字幕 蓝光原盘 1080P 高清动漫电影电视剧

 找回密码
 立即注册
搜索
查看: 159|回复: 1

[国产] [百度][2005][DVD5~8][风云2][国语中字][赵文卓.何润东][ISO.VOB][30.67GB]

[复制链接]
  • TA的每日心情
    奋斗
    2020-3-1 21:46
  • 签到天数: 446 天

    [LV.9]以坛为家II

    2702

    主题

    3220

    帖子

    9533

    积分

    影迷皇帝

    Rank: 20Rank: 20Rank: 20Rank: 20Rank: 20

    积分
    9533

    贵族勋章土豪勋章小土豪勋章主题达人百分百好孩子内测勋章最佳新人影迷女神十二生肖之猪水瓶座勋章富甲一方

    发表于 2019-4-3 11:52:08 | 显示全部楼层 |阅读模式




    ◎译  名 The Storm Riders 2 / 风云II
    ◎片  名 风云2
    ◎年  代 2005
    ◎产  地 中国大陆
    ◎类  别 剧情 / 动作
    ◎语  言 汉语普通话
    ◎上映日期 2005
    ◎IMDb评分 6.1/10 from 37 users
    ◎IMDb链接 http://www.imdb.com/title/tt0984170
    ◎豆瓣评分 6.2/10 from 5551 users
    ◎豆瓣链接 https://movie.douban.com/subject/5355142/
    ◎集  数 42
    ◎导  演 李惠民 Raymond Lee
    ◎编  剧 关展博 Edwin Chin-Pok Kwan / 陈丽华 Lihua Chen / 陈惠妍 Hui-yan Chen
    ◎主  演 赵文卓 Man Cheuk Chiu
          何润东 Peter Ho
          冯绍峰 Shaofeng Feng
          黄奕 Crystal Huang
          秦岚 Lan Qin
          孙兴 Hing Suen
          李立群 Lichun Lee
          陈冠霖 Guanlin Chen
          郑国霖 Guolin Zheng
          陈怡蓉 Tammy Chen
          韦以丞 Ethan Wei
          李馨雨 Xinyu Li
          刘卫华 Weihua Liu
          黄家诺 Jimmy Ga Lok Wong
          杨蕊 Rui Yang
          潘虹 Hung Poon
          王翔弘 Xianghong Wang
          岳跃利 Yueli Yue
          张植绿 Zhilu Zhang
          金书贵 Shugui Jin
          朱逸凡
          王之民
          格桑多杰
          朱虹 Hong Zhu
          李繁
          姚健
          宗晓军 Xiao-jun Zong
          韩振华 Zhenhua Han
          姬麒麟 Qilin Ji
          李娟妹
          戴兆安 Zhaoan Dai
          刘建荣
          陈勇
          杨树
          郭小安 Xiao'an Guo


    ◎标  签 武侠 | 电视剧 | 国产电视剧 | 古装 | 看过的电视剧 | 华语标签 | 赵文卓 | 何润东

    ◎简  介  

      聂风(赵文卓 饰)依旧被魔性控制着心智,并因此同步惊云(何润东 饰)展开了一场恶战,势均力敌的两人一时间难以分出高下,双双跌落山崖,聂风因此而恢复了本性,而步惊云却就此失去了音讯。聂风本以为步惊云已死,谁知他漂流到了一个小小渔村之中,被盲女紫凝(陈怡蓉 饰)和她的父亲救起,并且在机缘巧合之下得到了绝世神剑。
    江湖之中,风云再起,邪恶帮派天门派汇聚了天下各路能人高手,帝释天(韦以丞 饰)身为掌门,却有着不为人知的的过去和极为神秘的身世,原来,他就是传说中替皇帝寻找长生不老之药的徐福(李立群 饰),偷吃了神丹“凤元”,拥有了不死之生命,如今,有关“龙元”的传闻在江湖之中闹得沸沸扬扬,帝释天发誓绝不会让此物落入他人手中。
    1. General
    2. Format                         : MPEG-PS
    3. File size                      : 1 024 MiB
    4. Duration                       : 14 min 48 s
    5. Overall bit rate mode          : Constant
    6. Overall bit rate               : 9 663 kb/s
    7. Writing library                : encoded by TMPGEnc (ver. 2.53.35.130)

    8. Video
    9. ID                             : 224 (0xE0)
    10. Format                         : MPEG Video
    11. Format version                 : Version 2
    12. Format profile                 : Main@Main
    13. Format settings, BVOP          : Yes
    14. Format settings, Matrix        : Custom
    15. Format settings, GOP           : Variable
    16. Duration                       : 14 min 48 s
    17. Bit rate mode                  : Constant
    18. Bit rate                       : 9 279 kb/s
    19. Maximum bit rate               : 5 000 kb/s
    20. Width                          : 352 pixels
    21. Height                         : 480 pixels
    22. Display aspect ratio           : 4:3
    23. Frame rate                     : 29.970 (30000/1001) FPS
    24. Standard                       : NTSC
    25. Color space                    : YUV
    26. Chroma subsampling             : 4:2:0
    27. Bit depth                      : 8 bits
    28. Scan type                      : Progressive
    29. Compression mode               : Lossy
    30. Bits/(Pixel*Frame)             : 1.832
    31. Time code of first frame       : 00:00:00:00
    32. Time code source               : Group of pictures header
    33. GOP, Open/Closed               : Open
    34. GOP, Open/Closed of first fram : Closed
    35. Stream size                    : 983 MiB (96%)
    36. Writing library                : TMPGEnc 2.53.35.130
    37. Color primaries                : BT.601 PAL
    38. Transfer characteristics       : BT.470 System B, BT.470 System G
    39. Matrix coefficients            : BT.601

    40. Audio
    41. ID                             : 189 (0xBD)-128 (0x80)
    42. Format                         : AC-3
    43. Format/Info                    : Audio Coding 3
    44. Format settings, Endianness    : Big
    45. Muxing mode                    : DVD-Video
    46. Duration                       : 14 min 48 s
    47. Bit rate mode                  : Constant
    48. Bit rate                       : 192 kb/s
    49. Channel(s)                     : 2 channels
    50. Channel positions              : Front: L R
    51. Sampling rate                  : 48.0 kHz
    52. Frame rate                     : 31.250 FPS (1536 spf)
    53. Bit depth                      : 16 bits
    54. Compression mode               : Lossy
    55. Stream size                    : 20.3 MiB (2%)
    56. Service kind                   : Complete Main

    57. Menu
    复制代码



    购买主题 已有 1 人购买  本主题需向作者支付 30 大洋 才能浏览
    回复

    使用道具 举报

  • TA的每日心情

    2019-7-3 11:38
  • 签到天数: 4 天

    [LV.2]偶尔看看I

    24

    主题

    85

    帖子

    29

    积分

    初级影迷

    Rank: 2

    积分
    29
    发表于 2019-6-28 16:19:10 | 显示全部楼层
    不知道到底请不清晰
    回复

    使用道具 举报

    您需要登录后才可以回帖 登录 | 立即注册

    本版积分规则

    QQ|Archiver|手机版|小黑屋|影迷乐园  

    GMT+8, 2020-4-4 04:14 , Processed in 0.144443 second(s), 32 queries .

    Powered by Discuz! X3.3

    © 2001-2017 Comsenz Inc.

    快速回复 返回顶部 返回列表