请选择 进入手机版 | 继续访问电脑版

YMLY-影迷乐园-特效字幕 蓝光原盘 1080P 高清动漫电影电视剧

 找回密码
 立即注册
搜索
查看: 140|回复: 0

[国产] [百度][2003][DVD5~10][出水芙蓉][俏佳人][国语中字][陶虹.佟大为][ISO][35.38GB]

[复制链接]
  • TA的每日心情
    奋斗
    2020-2-21 00:36
  • 签到天数: 656 天

    [LV.9]以坛为家II

    5326

    主题

    6536

    帖子

    1万

    积分

    超级版主

    Rank: 16Rank: 16Rank: 16Rank: 16

    积分
    18569

    内测勋章最佳新人十二生肖之猴VIP包月勋章影迷男神小土豪勋章土豪勋章富甲一方精华勋章金话筒主题达人灌水之王

    发表于 2019-4-16 03:25:03 | 显示全部楼层 |阅读模式


    ◎片  名 出水芙蓉
    ◎年  代 2003
    ◎产  地 中国大陆
    ◎类  别 爱情
    ◎语  言 汉语普通话
    ◎豆瓣评分 6.6/10 from 386 users
    ◎豆瓣链接 https://movie.douban.com/subject/2373260/
    ◎集  数 20
    ◎导  演 宋洋 Yang Song
    ◎主  演 陶虹 Hong Tao
          佟大为 Dawei Tong
          宋佳 Jia Song


    ◎标  签 电视剧 | 国产电视剧 | 陶虹 | 佟大为 | 陈龙 | 出水芙蓉 | 宋佳 | 爱情

    ◎简  介  

      林婷(陶虹 饰)是花样游泳队的教练,某次十分重要的比赛中,她接到了丈夫方信出车祸生命垂危的消息。方信的女儿方晓轩(宋佳 饰)是游泳队中的一员,此刻正在赛场上比赛,为了不影响方晓轩的比赛状态,林婷决定对她隐瞒此事。然而最终方晓轩还是知晓的真相,当她放弃了比赛赶到医院时,等待着她的却是父亲冰冷的遗体,为此,方晓轩恨透了林婷,觉得她是一切悲剧的罪魁祸首。
    因为经费紧缺,领导决定解散花样游泳队,唯一保住游泳队的方法,就是拿出五十万的赞助费。终日操劳的林婷体力不支病倒了,之后,方晓轩的腿亦在一场意外之中受伤严重。为了不拖累队友,方晓轩决定带伤比赛,哪知道伤口感染,她要面临的是截肢的悲惨命运。
    1. General
    2. Format                         : MPEG-PS
    3. File size                      : 1 024 MiB
    4. Duration                       : 25 min 43 s
    5. Overall bit rate mode          : Constant
    6. Overall bit rate               : 5 565 kb/s

    7. Video
    8. ID                             : 224 (0xE0)
    9. Format                         : MPEG Video
    10. Format version                 : Version 2
    11. Format profile                 : Main@Main
    12. Format settings, BVOP          : Yes
    13. Format settings, Matrix        : Default
    14. Format settings, GOP           : M=3, N=15
    15. Duration                       : 25 min 43 s
    16. Bit rate mode                  : Constant
    17. Bit rate                       : 5 231 kb/s
    18. Maximum bit rate               : 8 000 kb/s
    19. Width                          : 720 pixels
    20. Height                         : 480 pixels
    21. Display aspect ratio           : 4:3
    22. Frame rate                     : 29.970 (30000/1001) FPS
    23. Standard                       : NTSC
    24. Color space                    : YUV
    25. Chroma subsampling             : 4:2:0
    26. Bit depth                      : 8 bits
    27. Scan type                      : Progressive
    28. Compression mode               : Lossy
    29. Bits/(Pixel*Frame)             : 0.505
    30. Time code of first frame       : 00:00:00:00
    31. Time code source               : Group of pictures header
    32. GOP, Open/Closed               : Open
    33. GOP, Open/Closed of first fram : Closed
    34. Stream size                    : 962 MiB (94%)
    35. Color primaries                : BT.470 System M
    36. Transfer characteristics       : BT.470 System M
    37. Matrix coefficients            : BT.601

    38. Audio
    39. ID                             : 189 (0xBD)-128 (0x80)
    40. Format                         : AC-3
    41. Format/Info                    : Audio Coding 3
    42. Format settings, Endianness    : Big
    43. Muxing mode                    : DVD-Video
    44. Duration                       : 25 min 42 s
    45. Bit rate mode                  : Constant
    46. Bit rate                       : 224 kb/s
    47. Channel(s)                     : 2 channels
    48. Channel positions              : Front: L R
    49. Sampling rate                  : 48.0 kHz
    50. Frame rate                     : 31.250 FPS (1536 spf)
    51. Bit depth                      : 16 bits
    52. Compression mode               : Lossy
    53. Stream size                    : 41.2 MiB (4%)
    54. Service kind                   : Complete Main

    55. Menu
    复制代码



    购买主题 本主题需向作者支付 30 大洋 才能浏览
    郑重声明:
    本人提供的所有影视作品均是在网上搜集,任何涉及商业盈利目的均不得使用,否则产生的一切后果将由您自己承担!
    本人不对本人所发布的任何内容负任何法律责任!该下载内容仅做宽带测试使用,请在下载后24小时内删除。请购买正版!
    本人列出的文件没有保存在本站的服务器上,本人仅负责连接,本人对被传播文件的内容一无所知。
    如侵犯视频原作者或发行商版权,请联系本人删除!
    回复

    使用道具 举报

    您需要登录后才可以回帖 登录 | 立即注册

    本版积分规则

    QQ|Archiver|手机版|小黑屋|影迷乐园  

    GMT+8, 2020-4-4 04:20 , Processed in 0.135315 second(s), 30 queries .

    Powered by Discuz! X3.3

    © 2001-2017 Comsenz Inc.

    快速回复 返回顶部 返回列表