请选择 进入手机版 | 继续访问电脑版

YMLY-影迷乐园-特效字幕 蓝光原盘 1080P 高清动漫电影电视剧

 找回密码
 立即注册
搜索
查看: 185|回复: 1

[国产] [百度][2000][DVD5~18][大明宫词][国语中字][陈红.归亚蕾][ISO][69.12GB]

[复制链接]
  • TA的每日心情
    奋斗
    2020-2-21 00:36
  • 签到天数: 656 天

    [LV.9]以坛为家II

    5326

    主题

    6536

    帖子

    1万

    积分

    超级版主

    Rank: 16Rank: 16Rank: 16Rank: 16

    积分
    18571

    内测勋章最佳新人十二生肖之猴VIP包月勋章影迷男神小土豪勋章土豪勋章富甲一方精华勋章金话筒主题达人灌水之王

    发表于 2019-4-16 03:32:28 | 显示全部楼层 |阅读模式

    ◎译  名 Palace of Desire
    ◎片  名 大明宫词
    ◎年  代 2000
    ◎产  地 中国大陆
    ◎类  别 剧情 / 爱情 / 古装
    ◎语  言 汉语普通话
    ◎上映日期 2000-03-30(中国大陆)
    ◎IMDb评分  7.8/10 from 76 users
    ◎IMDb链接  http://www.imdb.com/title/tt2197774
    ◎豆瓣评分 9.0/10 from 69590 users
    ◎豆瓣链接 https://movie.douban.com/subject/2154859/
    ◎集  数 40
    ◎片  长 47分钟
    ◎导  演 李少红 Shaohong Li
    ◎编  剧 郑重 Zhong Zheng / 王要 Yao Wang
    ◎主  演 陈红 Hong Chen
          归亚蕾 Ya-lei Kuei
          周迅 Xun Zhou
          赵文瑄 Winston Chao
          傅彪 Biao Fu
          申军谊 Junyi Shen
          贾妮 Ni Jia
          刘栋 Dong Liu
          吴军忱 Junchen Wu
          孙斌 Bin Sun
          李昊翰 Haohan Li
          高冬平 Dongping Gao
          李冰冰 Bingbing Li
          杨雨婷 Yuting Yang


    ◎标  签 电视剧 | 大明宫词 | 李少红 | 经典 | 国产电视剧 | 历史 | 周迅 | 大陆

    ◎简  介  

      大唐皇后武则天(归亚蕾 饰)怀胎12月而无法临盆。大雨连天,当大胜突厥的喜讯传来之时,武则天羊水破了。公主就这样在漫天风雨中来到世界。唐高宗李治认定女儿的降世将为天下带来好运,当场赐名太平公主。
    少年太平(周迅 饰)顽皮不堪,捉弄三个哥哥,戳破好姐妹韦氏(胡静 饰)与哥哥显的小爱情,却也目睹了宫内斗争的风雨。但这些风雨离太平还很遥远。直到她16岁与韦氏偷偷出宫,在夜市扰攘中偶遇薛绍(赵文瑄 饰),少女情窦初开。
    在太平的请愿下,武则天明知薛绍早有妻室也答应了太平的请婚,一手安排了薛绍妻子慧娘的赐死,也为太平的婚姻悲剧埋下伏笔。婚后无论太平如何温柔体贴,薛绍始终不置一词。然而倔强为爱不顾一切的太平(陈红 饰)赢得了薛家上下的信任,当真相被无情揭露时,薛家对她的唯一请求是保留薛家的血脉——叶儿。薛绍的死给太平带来了极大的创伤,也为母女关系扯开一道无法弥合的裂缝。
    武则天登基,创立大周朝。太平为了与母亲赌气而嫁给憨厚老实却一无所长的武攸嗣(傅彪 饰),度过了五年漫长的毫无喜悦的婚姻。但这段时期却培养了太平的政治能力,她一而再再而三地为母亲解决了政治危机,深得武则天器重。然而她仍然拒绝入主政治。深爱太平却苦于无法得到太平的心的武攸嗣一次酒后偷欢,被太平撞见后羞愧自尽。太平就这样结束了自己的第二段婚姻。
    当与薛绍长相酷似的张易之(赵文瑄 饰)出现在太平面前时,太平的心再次被捕。然而在交往中,她明白张易之绝对不是薛绍,他们只有情欲的纠缠,而张易之是渴望通过掌控女人来掌控天下。张易之不仅与太平有染,还与韦氏和武则天有关系,这深深地伤害了太平的心。当张易之企图篡位时,远道赶来的太平一刀结束了他的生命,斩断了自己的爱情。
    武则天去世,太平成了镇国公主。侄子李隆基对她呵护有加,当年的叶儿也长成了高大的好青年,并与李隆基是挚交好友。这两位年轻人用自己的方式爱着太平:李隆基是要让姑母得到天下权利而爱她,叶儿则是让太平离开权利纷争而爱她。这矛盾一触即发……
    1. General
    2. Format                         : MPEG-PS
    3. File size                      : 1 024 MiB
    4. Duration                       : 24 min 23 s
    5. Overall bit rate mode          : Constant
    6. Overall bit rate               : 5 868 kb/s

    7. Video
    8. ID                             : 224 (0xE0)
    9. Format                         : MPEG Video
    10. Format version                 : Version 2
    11. Format profile                 : Main@Main
    12. Format settings, BVOP          : Yes
    13. Format settings, Matrix        : Custom
    14. Format settings, GOP           : M=3, N=12
    15. Format settings, picture struc : Frame
    16. Duration                       : 24 min 23 s
    17. Bit rate mode                  : Constant
    18. Bit rate                       : 5 300 kb/s
    19. Width                          : 720 pixels
    20. Height                         : 576 pixels
    21. Display aspect ratio           : 4:3
    22. Frame rate                     : 25.000 FPS
    23. Standard                       : PAL
    24. Color space                    : YUV
    25. Chroma subsampling             : 4:2:0
    26. Bit depth                      : 8 bits
    27. Scan type                      : Interlaced
    28. Scan order                     : Top Field First
    29. Compression mode               : Lossy
    30. Bits/(Pixel*Frame)             : 0.511
    31. Time code of first frame       : 00:00:00:00
    32. Time code source               : Group of pictures header
    33. GOP, Open/Closed               : Closed
    34. Stream size                    : 925 MiB (90%)

    35. Audio
    36. ID                             : 189 (0xBD)-128 (0x80)
    37. Format                         : AC-3
    38. Format/Info                    : Audio Coding 3
    39. Format settings, Endianness    : Big
    40. Muxing mode                    : DVD-Video
    41. Duration                       : 24 min 23 s
    42. Bit rate mode                  : Constant
    43. Bit rate                       : 448 kb/s
    44. Channel(s)                     : 6 channels
    45. Channel positions              : Front: L C R, Side: L R, LFE
    46. Sampling rate                  : 48.0 kHz
    47. Frame rate                     : 31.250 FPS (1536 spf)
    48. Bit depth                      : 16 bits
    49. Compression mode               : Lossy
    50. Stream size                    : 78.1 MiB (8%)
    51. Service kind                   : Complete Main

    52. Menu
    复制代码



    购买主题 已有 1 人购买  本主题需向作者支付 50 大洋 才能浏览
    郑重声明:
    本人提供的所有影视作品均是在网上搜集,任何涉及商业盈利目的均不得使用,否则产生的一切后果将由您自己承担!
    本人不对本人所发布的任何内容负任何法律责任!该下载内容仅做宽带测试使用,请在下载后24小时内删除。请购买正版!
    本人列出的文件没有保存在本站的服务器上,本人仅负责连接,本人对被传播文件的内容一无所知。
    如侵犯视频原作者或发行商版权,请联系本人删除!
    回复

    使用道具 举报

  • TA的每日心情
    郁闷
    前天 17:07
  • 签到天数: 14 天

    [LV.3]偶尔看看II

    0

    主题

    50

    帖子

    58

    积分

    初级影迷

    Rank: 2

    积分
    58
    发表于 2020-2-24 20:00:44 | 显示全部楼层
    谢谢大佬分享
    回复

    使用道具 举报

    您需要登录后才可以回帖 登录 | 立即注册

    本版积分规则

    QQ|Archiver|手机版|小黑屋|影迷乐园  

    GMT+8, 2020-4-4 04:57 , Processed in 0.150983 second(s), 32 queries .

    Powered by Discuz! X3.3

    © 2001-2017 Comsenz Inc.

    快速回复 返回顶部 返回列表