请选择 进入手机版 | 继续访问电脑版

YMLY-影迷乐园-特效字幕 蓝光原盘 1080P 高清动漫电影电视剧

 找回密码
 立即注册
搜索
查看: 196|回复: 4

[国产] [百度][1995][DVD9~5][观世音菩萨传奇.观世音传奇][国粤双语中字][陶慧敏.王思思][VOB][37.3GB]

[复制链接]
  • TA的每日心情
    奋斗
    2020-3-1 21:46
  • 签到天数: 446 天

    [LV.9]以坛为家II

    2702

    主题

    3220

    帖子

    9533

    积分

    影迷皇帝

    Rank: 20Rank: 20Rank: 20Rank: 20Rank: 20

    积分
    9533

    贵族勋章土豪勋章小土豪勋章主题达人百分百好孩子内测勋章最佳新人影迷女神十二生肖之猪水瓶座勋章富甲一方

    发表于 2019-8-7 00:30:02 | 显示全部楼层 |阅读模式


    ◎译  名 新观世音菩萨传奇
    ◎片  名 观世音菩萨传奇
    ◎年  代 1995
    ◎产  地 中国大陆
    ◎语  言 汉语普通话
    ◎上映日期 1995
    ◎豆瓣评分 8.6/10 from 374 users
    ◎豆瓣链接 https://movie.douban.com/subject/5341867/
    ◎集  数 20
    ◎导  演 贺米生 Misheng He
    ◎主  演 陶慧敏 Huimin Tao
          王思思 Sisi Wang
          王丽云 Liyun Wang
          梁丹昵
          吴旗 Qi Wu
          王跃晋


    ◎标  签 观世音 | 国产电视剧 | 电视剧 | 神话 | 陶慧敏 | 古装 | 传记 | 童年

    ◎简  介  

      观世音的前世慈航大士面对佛祖立下宏愿,转世人间度醒众生,点悟从善之道,使众生脱离苦海。正当慈航大士转世妙庄王国三公主妙善时,黑衣魔女(即魔鲤)亦翻卷乌云,包围祥云一起落入妙庄王的寝宫,言三公主乃妖魔附体,不除掉三公主江山难保的舆论蛊惑大臣百姓。宰相霍羽一心谋取王位,也以此为由逼迫国王将女婴投海......三公主得救后,黑衣魔女恶心不死,追至大香山以魔法对冒险救助并精心养育妙善的尹妈一家制造病伤事故威胁尹家夫妇。计不得逞,又将尹妙父女推下山崖,欲置妙善于死地。
    妙善经历种种魔难长大成人,晨钟暮课,一心向佛。她得到佛祖的点化,和其养父一起竭尽全力为山林百姓治病救难,和乡邻相亲相善。魔女知霍羽谋篡王位更加心切,便告知三公主下落,并称三公主妙善是奸相夺得王位的最大障碍。于是魔奸勾结演出了一幕幕阴险残暴的丑剧。在观云洞终被妙善用佛祖赐给的宝匣、净瓶收灭。妙善请求妙庄王重新修复了白雀寺,她和两位弟子也修成正果,往升天界,被佛祖赐号为大慈大悲救苦救难观世音菩萨。
    1. General
    2. Format                         : MPEG-PS
    3. File size                      : 1 024 MiB
    4. Duration                       : 22 min 58 s
    5. Overall bit rate               : 6 228 kb/s

    6. Video
    7. ID                             : 224 (0xE0)
    8. Format                         : MPEG Video
    9. Format version                 : Version 2
    10. Format profile                 : Main@Main
    11. Format settings, BVOP          : Yes
    12. Format settings, Matrix        : Custom
    13. Format settings, GOP           : Variable
    14. Format settings, picture struc : Frame
    15. Duration                       : 22 min 58 s
    16. Bit rate mode                  : Constant
    17. Bit rate                       : 5 721 kb/s
    18. Maximum bit rate               : 6 000 kb/s
    19. Width                          : 720 pixels
    20. Height                         : 576 pixels
    21. Display aspect ratio           : 4:3
    22. Frame rate                     : 25.000 FPS
    23. Standard                       : PAL
    24. Color space                    : YUV
    25. Chroma subsampling             : 4:2:0
    26. Bit depth                      : 8 bits
    27. Scan type                      : Interlaced
    28. Scan order                     : Top Field First
    29. Compression mode               : Lossy
    30. Bits/(Pixel*Frame)             : 0.552
    31. Time code of first frame       : 00:00:00:00
    32. Time code source               : Group of pictures header
    33. Stream size                    : 940 MiB (92%)
    34. Color primaries                : BT.601 NTSC
    35. Transfer characteristics       : BT.601
    36. Matrix coefficients            : BT.601

    37. Audio #1
    38. ID                             : 189 (0xBD)-128 (0x80)
    39. Format                         : AC-3
    40. Format/Info                    : Audio Coding 3
    41. Format settings, Endianness    : Big
    42. Muxing mode                    : DVD-Video
    43. Duration                       : 22 min 58 s
    44. Bit rate mode                  : Constant
    45. Bit rate                       : 192 kb/s
    46. Channel(s)                     : 2 channels
    47. Channel positions              : Front: L R
    48. Sampling rate                  : 48.0 kHz
    49. Frame rate                     : 31.250 FPS (1536 spf)
    50. Bit depth                      : 16 bits
    51. Compression mode               : Lossy
    52. Stream size                    : 31.6 MiB (3%)
    53. Service kind                   : Complete Main

    54. Audio #2
    55. ID                             : 189 (0xBD)-129 (0x81)
    56. Format                         : AC-3
    57. Format/Info                    : Audio Coding 3
    58. Format settings, Endianness    : Big
    59. Muxing mode                    : DVD-Video
    60. Duration                       : 22 min 58 s
    61. Bit rate mode                  : Constant
    62. Bit rate                       : 192 kb/s
    63. Channel(s)                     : 2 channels
    64. Channel positions              : Front: L R
    65. Sampling rate                  : 48.0 kHz
    66. Frame rate                     : 31.250 FPS (1536 spf)
    67. Bit depth                      : 16 bits
    68. Compression mode               : Lossy
    69. Stream size                    : 31.6 MiB (3%)
    70. Service kind                   : Complete Main

    71. Text #1
    72. ID                             : 189 (0xBD)-32 (0x20)
    73. Format                         : RLE
    74. Format/Info                    : Run-length encoding
    75. Muxing mode                    : DVD-Video

    76. Text #2
    77. ID                             : 189 (0xBD)-33 (0x21)
    78. Format                         : RLE
    79. Format/Info                    : Run-length encoding
    80. Muxing mode                    : DVD-Video

    81. Text #3
    82. ID                             : 189 (0xBD)-34 (0x22)
    83. Format                         : RLE
    84. Format/Info                    : Run-length encoding
    85. Muxing mode                    : DVD-Video

    86. Menu
    复制代码






    购买主题 已有 1 人购买  本主题需向作者支付 30 大洋 才能浏览
    回复

    使用道具 举报

  • TA的每日心情
    开心
    2020-3-22 10:18
  • 签到天数: 207 天

    [LV.7]常住居民III

    10

    主题

    2263

    帖子

    760

    积分

    专业影迷

    Rank: 8Rank: 8

    积分
    760

    小土豪勋章土豪勋章

    发表于 2019-8-7 08:57:00 | 显示全部楼层
    感谢分享。。。。。。。。。。。。。。。。
    1
    回复

    使用道具 举报

  • TA的每日心情
    开心
    2020-3-25 21:55
  • 签到天数: 116 天

    [LV.6]常住居民II

    1

    主题

    972

    帖子

    138

    积分

    中级影迷

    Rank: 3Rank: 3

    积分
    138
    发表于 2019-8-7 15:38:46 | 显示全部楼层
    谢谢分享!
    回复

    使用道具 举报

  • TA的每日心情
    开心
    6 天前
  • 签到天数: 99 天

    [LV.6]常住居民II

    0

    主题

    164

    帖子

    108

    积分

    中级影迷

    Rank: 3Rank: 3

    积分
    108
    发表于 2019-8-13 17:48:23 | 显示全部楼层
    经典之作收下了
    回复

    使用道具 举报

  • TA的每日心情
    奋斗
    2019-9-30 14:43
  • 签到天数: 43 天

    [LV.5]常住居民I

    2

    主题

    597

    帖子

    80

    积分

    中级影迷

    Rank: 3Rank: 3

    积分
    80
    发表于 2019-8-14 19:31:59 | 显示全部楼层

    感谢分享好资源!
    回复

    使用道具 举报

    您需要登录后才可以回帖 登录 | 立即注册

    本版积分规则

    QQ|Archiver|手机版|小黑屋|影迷乐园  

    GMT+8, 2020-4-4 04:01 , Processed in 0.142371 second(s), 31 queries .

    Powered by Discuz! X3.3

    © 2001-2017 Comsenz Inc.

    快速回复 返回顶部 返回列表